<?xml version="1.0" standalone="no"?>
<!DOCTYPE svg PUBLIC "-//W3C//DTD SVG 1.1//EN" "http://www.w3.org/Graphics/SVG/1.1/DTD/svg11.dtd" >
<svg xmlns="http://www.w3.org/2000/svg">
<metadata>
This is a custom SVG webfont generated by Font Squirrel.
Copyright   : Ryoichi Tsunekawa Bagel and Co All Rights Reserved
</metadata>
<defs>
<font id="webfontamIp8rmu" horiz-adv-x="80" >
<font-face units-per-em="1024" ascent="819" descent="-205" />
<missing-glyph horiz-adv-x="212" />
<glyph unicode=" "  horiz-adv-x="212" />
<glyph unicode="&#x09;" horiz-adv-x="212" />
<glyph unicode="&#xa0;" horiz-adv-x="212" />
<glyph unicode="!" horiz-adv-x="212" d="M40 20v56l8 8h4l8 -8v-24l4 -48l-4 -4h-16v4l4 4v4zM40 92v36l8 8h24l4 -4l4 4h16l4 -4l4 4h8l8 -8q-10 -40 -16 -40h-36l-4 4l-12 -4zM40 404v84h4l12 -8q21 0 24 12v12l-20 4l-12 -8h-8v100l8 8h12l-4 -32l4 -12h12l-4 20l8 24h12l8 -8v-32q0 -12 -36 -16l-4 -16h8 l20 4q24 -22 24 -48q8 0 12 32q23 16 36 16l-4 4v4l4 4h8l8 -8v-8l-4 -4v-4l-4 4h-16v-8q20 0 20 -8l-108 -112l-16 -4zM40 624v172l40 -12h12v16q-9 17 -52 40v16l8 8h56q9 0 8 -12l-4 -60q5 -84 24 -84l12 36l-4 4q0 36 24 36l8 -12v-108q0 -12 -36 -12v-4q36 0 36 -8v-12 l-64 -8v-4l48 -4l12 4v-4l-8 -20l12 -12q-20 -2 -20 -12h-24l-20 -4l-8 40l4 12h-56zM44 304l4 4h8l4 -4l4 4h4l12 -4l-4 28h-4v-16h-20l-8 8v20q31 44 44 44q28 0 28 -8l20 8l4 -12l8 8v4q0 6 -36 16q0 32 56 80l4 -4v-104q0 -12 -44 -12l-8 8q0 -9 -20 -24q-6 -24 -12 -24 q13 -44 24 -44l-4 -4l8 -56l-4 -4h-56q-7 0 -8 12zM68 8v12q24 16 24 32l-24 28l4 4h12l4 -4l4 4h12q8 0 8 -32h4v24h8v-8l-4 -4q13 -35 32 -60l-4 -4h-72zM120 92v4l8 8v-12h-8zM132 112v4q8 18 16 20h16l8 -8v-4l-8 -8l-4 4h-4q0 -9 -20 -12zM140 860l4 4h24v-4l-8 -12 q12 0 12 -8v-40h-4q-24 0 -24 32zM144 224v20h8q12 0 12 -16l-4 -12h-8z" />
<glyph unicode="&#x22;" horiz-adv-x="352" d="M40 1000h72v-4q0 -10 -40 -12l4 -4l-4 -20v-32l-8 -8h-20zM48 892l4 4h16q64 0 64 12h-4l-68 -8v8l88 12l4 -4v-12q0 -12 -44 -12v-8h4l12 4v-4l4 4h12l8 -8q0 -80 -12 -80h-72q-9 0 -16 92zM80 928l4 4h12v-4l-8 -8zM80 944v16l4 4l-4 4v4q0 7 12 8l68 4v-4 q0 -52 -20 -52l-32 -4l-4 16l-4 -4h-12zM128 992v8h28v-8h-28zM192 996l4 4h68v-4q0 -8 -24 -12l-8 8q-4 -35 -12 -44q8 0 8 -36h4v16h4l16 -16v-8h-20l-16 -4q-24 0 -24 96zM204 892l4 4h36l20 4l4 -4v-12l-56 -60h-4zM228 800v4q0 8 36 8v4h-24v4l44 48q16 -8 16 -20 q0 -48 -28 -48h-44zM232 880h16v4h-16v-4zM236 956v16q0 12 76 12v-24l-8 -24q-68 9 -68 20zM280 992v8h32v-8h-32z" />
<glyph unicode="#" horiz-adv-x="780" d="M40 204v4q0 62 9 99q8 33 19 33h48q8 0 8 -12h8q0 12 8 12h48q2 52 12 52h4q0 -12 8 -12v8l-4 4v4l4 16l-12 20q7 28 16 28h12l4 -4l4 4h4q44 -4 44 -16v-4h-8v-4q23 0 36 -24v-4l-12 -4l-40 4h-12v-4l80 -16l-8 -48h24l8 -8q-7 0 -12 -20l-64 -12v-8q0 -12 44 -12h24 l4 -4l12 4l-8 32l4 4l20 -4h20l-20 24l4 4h44l8 8q44 -7 44 -16l-36 -28l-4 4l-4 -4h-4l-28 8q0 -36 -24 -36h-16l8 -24q-16 -46 -84 -52v-4l8 -12v-4l-24 -24l-24 16l-12 -12q0 -12 20 -12v-4q-8 -16 -20 -16l-4 -4l-4 4v20h-4l-4 -24l4 -4v-4l-72 -64h-8l24 152h-124z M88 512v4q12 0 28 16h4q24 -17 24 -28h4l4 28v8l-4 20l20 16h4l24 -28v-8h-16v-4q48 -3 48 -32l-12 -8h-68l-16 12l-24 -8q0 11 -20 12zM104 616v4q4 12 24 12l4 -4v-12l-24 -4zM132 4v12h8v-12h-8zM136 324l8 -28l-4 -4l24 -4v4l4 4v4q-5 32 -16 32h-8zM204 588q0 8 16 8v4 h-12v12q31 0 36 -16zM232 200l8 -8v4l-8 8v-4zM232 468v4l12 12h4l16 -16v-4h-4zM236 640l68 60h4l8 -40l-24 -8v-28h4l24 16l4 -12l-4 -12h4l12 -12v-4q-23 -28 -44 -28l-4 4v4l4 36q-15 -12 -28 -12zM252 740q3 32 12 32q16 -18 16 -28l-16 -12h-4zM268 644h8q0 8 12 8v8 h-4l-16 -8v-8zM268 844l4 4h20q28 -13 28 -60h-4q-48 48 -48 56zM276 632h4l8 8h-12v-8zM304 848l4 4h4l8 -8v8h12l8 -8l-16 -12h-4zM324 552q0 7 28 24l20 -32v-36l-8 -8v24h-4v-8h-4q-23 17 -32 36zM372 4q0 44 44 44h12v4h-24v4l36 32h56v8l-4 -4l-20 4h-16v4l72 64l4 -4 q-24 -152 -32 -160h-120l-4 4h-4zM372 248l20 12h4v-20h-4l-4 4h-4v-8h-8zM376 528v4l12 4l4 -4v12h4q8 0 8 -12l8 8q0 12 16 12l12 12q68 -70 68 -92h-4l-52 12v12h-40q-22 0 -36 32zM376 540v16h4l8 -8v-8h-12zM396 272v8h12l-8 -8h-4zM404 512h28v4h-28v-4zM432 44l8 -8 h16l4 20l-4 4h-16l-8 -8v-8zM432 360v16h8l24 -24l-4 -4h-4q-24 4 -24 12zM440 416q4 44 16 44l-4 4v8q52 0 52 -20h4q0 12 8 12h8q10 -5 32 -44h4q0 12 8 12h4v-12l-76 -68q-38 34 -56 64zM464 620v4l8 8h4l8 -8l-4 -4h-16zM468 176l12 12h4l-12 -12h-4zM472 604l4 4h20 l20 -20v-16l-8 -8zM480 640v4h4l16 -12v4l-20 20q22 152 36 152l12 12l-16 4v4h20v4q-20 0 -20 8v8l8 16h120l4 -4h4l-20 -112l-44 8l-4 -4l-16 4l-48 -4v-4q0 -12 64 -12h16l28 4v-4q0 -80 -28 -80h-12q0 -12 24 -12v-12h132q-5 -66 -16 -100l-4 4h-8l-44 -36l-4 4v12 l12 16l-8 16l8 44q-16 0 -16 16q-24 16 -72 20l-12 -4l-12 4l-8 -8l-12 12l4 4v4l-4 4h-12q-4 -24 -12 -24q-40 6 -40 20zM500 204l12 12h4l-12 -12h-4zM516 596v8h24v-8l-20 -4zM520 220l16 16h4l-16 -16h-4zM560 256l12 12h4l-12 -12h-4zM580 272l12 12h4l-12 -12h-4z M584 204v4l12 12h32l20 4v4l-8 8h-20v4l64 56l4 -4q-13 -88 -20 -88h-84zM604 292l20 20h4l-20 -20h-4zM632 316l20 20h4l-20 -20h-4z" />
<glyph unicode="$" horiz-adv-x="512" d="M40 232l32 16h16q9 0 12 -20h-4l-20 8h-4v-4q12 0 12 -8l-16 -4v-8q16 -2 16 -12l-8 -8q-32 0 -32 20zM52 676q0 46 40 124l20 -4h12q0 8 -20 8l-4 4v4q51 52 100 64v8h12v-24l16 16v4l-28 12l8 8v-4q16 6 16 12v4l-12 4l-8 -8h-4v16l8 8h16l4 -4l4 4h8l4 -4l4 4h8l4 -4 l4 4h8l8 -8l-48 -48h12q48 30 48 36l-8 16l4 4h4l20 -4v-48q0 -9 28 -12l32 -20l-4 -4v-4q45 0 72 -72h-24l-4 -4l-4 4h-24q-56 -31 -56 -44h-4q-27 36 -60 36h-16q-14 0 -32 -16l-12 4l-24 -4l-32 4q0 -9 -44 -12l8 -12v-4h-20v-4h16v-12h-8v-4l8 -20l-12 -8h-36l-4 4h-4z M56 648v8l68 4l8 -8v-4l-4 -4v-4l24 -16l28 20l-4 20l12 12l12 -64q-47 -40 -64 -40h-60q-9 0 -16 32l4 4h8l4 -4h4l4 4v4l4 -4h4l36 4q0 29 -72 36zM64 136l32 20q22 0 40 -24l-4 -20l4 -16h12l12 8h20q0 -14 60 -32q52 -48 96 -48l8 -12l-32 -8v-60h-8l-4 4l-24 -8h-68 l-8 8v52l-56 28q0 10 -60 64zM76 748h16v4h-16v-4zM84 548l4 4h4v-4l4 4h16l8 -8l-24 -16q-9 0 -12 20zM96 124h8l4 -4l8 8v4l-4 4h-8l-8 -8v-4zM124 492q70 60 84 60h28l92 -88q3 -28 16 -28h8l4 4h4q112 -117 112 -220q0 -84 -20 -84q-36 9 -36 20v4h20v4q-48 0 -48 28 q-9 9 -44 12q-12 55 -40 112v4q14 20 32 20l-16 20v4q0 6 16 12l-8 40l8 8l-20 20v4l4 4v4l-36 24q-72 -11 -72 -32h-4q-7 0 -12 36l-16 8l-20 -16q0 -34 36 -52v-4l-4 -4h-4q-64 63 -64 76zM172 840l40 -4h16v4l-44 4h-12v-4zM240 800l36 -4v8h-28l-4 4h-4v-8zM248 844l4 4 h4l4 -4h4v8l-4 4v4l-12 -4v-12zM328 708q84 27 84 44v12h4l4 -4l4 4h16q15 0 28 -80l-4 -4h-12q-8 0 -8 16l-56 20l-32 -32l28 -8h28v-8h-4l-72 -8v8q0 10 16 12v4q-24 3 -24 24zM332 844l40 -16h4v4l-36 16h-8v-4zM336 804l4 -12h28l8 8v8l-24 8zM444 120v8h4l8 -8l-4 -4 h-4z" />
<glyph unicode="%" horiz-adv-x="680" d="M40 532v88q0 8 12 8v8q-12 0 -12 8v8l8 8h28l28 4l4 -4v-112q0 -24 24 -36h16q29 0 40 44l16 8q0 8 -16 8l-4 4v80q0 8 24 8v4q-24 0 -24 12v16h12l4 -4h4l8 8l8 -8h4l28 4l4 -4v-144l-8 -48h-4l-24 20h-12v-4l16 -48q-18 -16 -28 -16l-24 8h-12q-16 -8 -16 -20 q-68 13 -68 32q-25 0 -36 60zM40 676v4l16 16l-16 24h8l4 -4l36 12v8l-12 4l-36 -8v20q0 12 36 12v4q-36 0 -36 12v16q0 56 48 88l28 -40q-28 -14 -28 -36l20 -12v-116q0 -8 -24 -12v4l-4 -4h-32zM60 552l20 -4h8q-4 24 -12 24h-12v-4l4 -4v-4zM80 -8q76 168 92.5 168 t19.5 24l-4 20l8 8l-4 16l12 8h8v-8h28v4h-12v8h8l28 -28q-59 -144 -76 -144l-12 -4l-4 4h-4q-28 -10 -28 -28q9 -22 28 -32q-8 -24 -16 -24h-64zM112 892q0 8 32 12q112 -16 112 -112v-32l-8 -8l-28 8l-36 -4v28l-8 44q16 8 16 24q-20 -11 -20 -24q-44 0 -44 32 q0 14 -16 32zM184 720l4 4h36l28 4l4 -4v-12l-28 -4v4l-4 -4q-40 4 -40 12zM184 740v8h12l36 4l12 -4v-8h-60zM264 372l68 144l32 -8q8 18 16 20h12l20 -16q-9 -24 -16 -24l-36 12l-12 -4q0 -17 36 -28v-4q0 -20 -60 -128h-4l4 -4v-4l-12 -12q-48 48 -48 56zM352 544v12l8 8 h4v-24zM372 596q9 32 32 32h4v4l-16 4q24 72 52 72l64 12q0 -21 -12 -24h-28v-8h24q0 -25 -60 -124q-16 8 -16 20l-20 -4l-4 12l-12 -8q-8 0 -8 12zM420 100l4 4h4l4 -12h4v4l-16 32l4 4l-4 20v28l8 8h56l8 -8v-16l-4 -44l4 -16h-4l4 -4v-4l-8 -8l-4 24h-4q0 -32 -20 -32 q0 -12 -24 -24q-12 22 -12 44zM420 208v108q3 12 32 12h32l8 -8v-4l-4 -4l4 -4v-16l-4 -4l4 -4v-4l-4 -16l4 -16v-4q0 -8 -28 -8v-4q28 -3 28 -12l-4 -4h-4l4 -4v-4l-8 -8h-20l-4 4l-4 -4h-24zM420 340v16q25 104 100 104l4 -4l4 4l4 -4v-4l-4 -4v-4h8l4 16q27 -3 56 -24 l-4 -4v-8l4 4h8q36 -27 36 -92v-72l-8 -8q0 7 -28 24h-4v-4l24 -32v-4h-28l-28 -4l-4 100v28q-20 21 -20 36h-4q0 -16 -36 -16q-12 -13 -12 -36l-40 -8v4l-4 -4h-28zM436 48v8q36 13 52 28h8q0 -12 12 -12l4 -4v-4l-12 -60h-4q-26 0 -60 44zM440 148l8 -8h8l28 4v8h-16z M440 668h20v4h-20v-4zM460 764v8q0 22 16 28l20 -32v-8h-8zM500 848v4q0 23 24 48h60q8 0 8 -12l-32 -64q-20 0 -20 36v12h-4v-36h-24zM524 0q10 72 20 72l4 -4v-4h-8l4 -12q-3 -56 -12 -56l-4 4h-4zM560 416h12v24h-8zM564 128v92q0 8 36 12v-4l12 4l4 -4h4l4 4h4l12 -4 l-4 -12l4 -20v-84q0 -44 -12 -44l-44 84l-4 4h-4l-4 -28h-8zM580 344q12 0 12 -12h8l16 12l-4 24h-4l-4 -4l-4 4h-12l-8 -8v-16z" />
<glyph unicode="&#x26;" horiz-adv-x="592" d="M40 204v12q0 8 12 8v4h-12q10 88 40 88q0 7 20 12v-8h-8l4 -4v-4l-8 -8h-24v-8l4 4h4l32 -8l64 4v4l-44 4l8 16l56 -24q-24 -50 -24 -96v-28l-28 -8l-12 4q-4 -12 -24 -12v8q0 72 -12 72l-16 -84v-36l8 -8l20 36l4 -4h4q0 8 60 24h4q0 -30 52 -48v-16h8q0 24 40 24l40 44 q0 13 20 24q40 -20 92 -20l16 4q36 0 52 -24l-16 -4v-4h8v-4q-31 -23 -88 -36q4 -16 24 -16l64 8l4 -4h4l56 20l4 -4v-92q0 -8 -12 -8q-58 0 -148 68l-28 -28q-29 104 -56 104v-4l-4 -4q4 -50 28 -120q-52 -28 -92 -28h-16q-135 0 -180 156zM64 696q0 170 164 208l72 -4 l24 -24l-20 -52v-4l44 40q92 -46 92 -136v-4q0 -92 -108 -208l-28 4h-116l-24 4l-4 -4h-4l-16 4l-4 -4h-4q-27 0 -52 96l4 12q-12 0 -12 8h4q-12 22 -12 64zM72 736l28 -4l20 4v4h-48v-4zM84 748h20v4h-20v-4zM92 100h16l8 8h-16zM108 340q0 13 12 28l-12 32l32 52v4l-16 48 v4h36l36 -4l4 4l28 -4h96v-4q-29 -47 -40 -52l48 -100h-20l-4 4l-116 -16v-4q85 -3 92 -16l-4 -4h-4l-4 4l-20 -4h-32q-8 0 -8 12h-4q-8 0 -8 -12l-4 -4h-4l-4 4l-4 -4h-12q-17 15 -64 32zM148 840q3 -10 64 -56q-24 -39 -24 -76v-8q0 -31 36 -128q92 100 92 156 q-11 76 -64 76l-32 -12q-14 0 -56 56l-4 -4h-4l-4 4h-4v-8zM164 368h16l12 12v8l-12 12l-16 -16v-16zM216 872h20l40 4v8l-4 -4h-28l-28 -4v-4zM228 300l12 -8h4l12 8h16q8 0 8 -12h4l24 16l-4 4v4q0 7 24 12l12 -4l12 4l28 -40h4q0 14 20 28h-8v8l8 8h28l28 4v-4l48 8 q0 12 -96 12l-4 4l24 84q116 -26 116 -32v-4q-35 -152 -64 -152l-4 -4h-20l-40 4l-8 -8h-8l-12 8h-36v-4h8v-4l-4 -4v-4l100 -8l20 4l8 -8q-8 -18 -16 -20l-68 4l-4 4l-4 -4h-16l-48 -4l4 28q-28 -26 -28 -44h-8q-72 94 -72 116zM248 584q8 -40 16 -40h16l8 8v12 q0 34 -24 48q-5 -28 -16 -28zM280 272l56 -36v-4h8v8zM300 656l4 -16h12l20 -4q-7 20 -36 20zM324 792l4 -4v-4l28 4v4h-32zM332 748h16l52 16v8h-12l-56 -16v-8zM356 268h20v4h-20v-4zM372 732l24 -4l4 4v4h-28v-4zM388 276h8l8 12h-4q0 -8 -12 -8v-4zM416 700h16l-4 4v4 l-12 -4v-4zM444 52h12v8l-12 -4v-4z" />
<glyph unicode="'" horiz-adv-x="196" d="M40 964v36h72l20 -20l-4 -12l4 -4v-4l-4 -4l4 -44h4l4 20l-4 4v8q12 0 12 8t-12 8v8l8 8l12 -28l-12 -140l-16 -8l-20 4l-36 -4h-8q-11 0 -20 148l80 -4v4q-84 9 -84 16zM60 892l68 -8l-12 12l-4 -4l-20 4h-32v-4zM120 808l4 -4h4l4 28v20q-9 0 -12 -44z" />
<glyph unicode="(" horiz-adv-x="340" d="M40 448v44q0 218 172 488h8q76 -33 76 -40q-132 -293 -132 -468l12 -100h-4l28 -120h-4q-140 55 -140 72l-12 76h4q8 0 8 -12h4v12zM64 288v12h4l32 -12v-8h-28zM68 268l8 8h36l92 -36v-8l-12 4h-8v-4q22 0 28 -16l-112 -36q-12 15 -12 36q13 8 40 8v4h-12v8h12v4l-16 4 l-36 -8v16l4 4v4q-12 0 -12 8zM104 160l112 36l16 -48q0 -16 -44 -24l-4 4l-12 -4q0 -12 -16 -12v-8l40 4l4 -4q0 20 36 20q11 -4 56 -128l8 -12q-61 -36 -76 -36h-12q-16 8 -16 24l32 16l16 -20v8h4l-4 4v12l12 16q-25 0 -36 24l-8 8v-4l12 -32q-21 -16 -36 -16 q-64 108 -64 132h28v4l-28 4q-15 11 -20 32zM132 800h24v4h-24v-4zM160 244l12 -4h4v4l-12 4h-4v-4zM168 32h8q22 0 32 16v4q-40 -7 -40 -16v-4z" />
<glyph unicode=")" horiz-adv-x="340" d="M40 -12l20 40q28 -14 28 -20q-12 -24 -24 -24q0 -11 44 -28l-28 24v4q9 24 16 24l12 -4l-48 32q40 95 84 240l120 32h12q-14 -99 -100 -272l-72 36h-4v-4q62 -25 72 -44q-43 -84 -52 -84q-80 36 -80 48zM40 936v4q70 40 84 40q176 -279 176 -508l-4 -16v-4 q0 -127 -36 -128q-52 -2 -80 -24l-32 -4v4l24 140l-4 4v4l4 4l-4 4v4l4 12l-4 24l4 4q-36 254 -132 436zM152 140h4q15 12 52 12v4h-8v4l-4 -4h-4l-4 4q-36 -12 -36 -20zM196 244h8l20 8v4h-8l-20 -8v-4zM204 384h4l16 4v4h-8l-12 -4v-4zM204 500l28 -4l24 4l-8 8h-24 l-20 -4v-4zM256 368h4l8 20v4h-4l-8 -20v-4z" />
<glyph unicode="*" horiz-adv-x="416" d="M40 708v4l12 12v4h4l16 -8v-16l-8 -8q-24 4 -24 12zM48 736q8 36 16 36q20 -12 20 -28h-4l-20 4l-4 -12h-8zM108 584v24l4 4v4l44 -12v4l-48 44l16 12v-8h4q64 0 64 20q-7 7 -48 12l-12 -4v4q0 21 12 36l20 -8q46 24 64 24q64 -7 64 -28l-4 -12l12 8l4 -4h4q0 20 8 20h8 l4 -4l40 8l8 -12l-12 -4l-12 4v-4q0 -22 -88 -32l-4 -4l-4 -12h-4l4 -4l-4 -20q32 -45 32 -56h-4q-55 0 -72 44l-4 4q-11 -27 -24 -36l-4 4l-8 -8l-4 4h-4q0 -8 -12 -8l-4 4h-4l-24 -8h-8zM268 652q53 0 76 -40l-28 -24h-8q-1 19 -40 64z" />
<glyph unicode="+" horiz-adv-x="528" d="M40 384v28q0 8 36 12l4 -4h4l12 4l4 -4v-4l-36 -36l-4 4l-8 -8h-4zM40 464v4l8 8l4 -4v-8h-12zM92 464v12h44l8 -8v-4q0 -13 -16 -12q-36 1 -36 12zM116 384l4 4h4l20 -4l4 4v4l44 -8v-8h-8l-4 4l-4 -4h-12l-4 4l-4 -4h-8l-4 4l-4 -4h-4l-4 4l-4 -4h-4zM204 376v4l60 64 l28 -4h24l4 -4h4v4l-28 32l12 12h4v-8h84l28 -8v8h20l44 -44v-24l-4 -4l4 -4v-12l-12 -12h-8l-4 4l-4 -4h-20l-4 4l-4 -4h-4l-4 4h-4l-24 -4v16h-12q0 -16 -12 -16v4l-4 -4h-8l-4 4h-4l8 56l-8 32l-12 -12v-56q0 -21 -12 -24v4l-16 -4v-148l-56 16l-36 -4v-8l-8 8v136h-8z M212 572v56l4 20h36l4 -4l4 4h12l28 -28l-72 -72h-4q-12 4 -12 24zM216 204v8h4l64 8v-8l-28 -8h-40zM288 204v8l16 4l4 -4v-8h-20zM380 400l28 -4l4 4v4h-32v-4z" />
<glyph unicode="," horiz-adv-x="212" d="M40 82v8l4 4l-4 4v8h36l8 -8l4 4l52 -8l12 4v4l-20 4v8h12v4h-16v8h36l8 -8v-124l-8 -8q-5 11 -36 28v48l-4 28h-4q0 -20 -8 -20h-32l-8 8v20l-16 4q-5 -20 -12 -20h-4zM68 30v24q0 6 16 12l4 -4l20 4h8v-8q0 -9 -20 -12l-4 4q0 -12 -16 -20h-8zM68 -98l32 104l20 4 q0 -20 8 -20v8h8q15 -12 28 -12q-18 -60 -44 -92h-44zM132 34h28v4h-28v-4z" />
<glyph unicode="-" horiz-adv-x="468" d="M40 406v48q8 16 24 16v4h-4l-16 -8l-4 4v16l8 8h68v-8h-8v-12l4 -4l12 -4v-4q44 4 76 20v-56l4 -20l4 4l4 12h4l-4 4v4l4 4l-4 4v28q0 20 8 20l12 -4v4l8 8h180l8 -8v-120l-8 -8h-60l-4 4h-4l4 20v12l-8 68h-4l-4 -40l4 -60l-4 -4h-248q-8 0 -12 28l4 4q-44 0 -44 16z M164 418h16v4h-16v-4zM340 466h4q28 0 44 -8l32 4v4l-44 12l-36 -4v-8zM360 378q6 -16 12 -16l8 36l-4 12q-12 -2 -12 -32h-4z" />
<glyph unicode="." horiz-adv-x="212" d="M40 2v36l8 8h60v-8h24l8 -8h-4l4 -4v-4q-2 -12 -28 -12v-4q28 -1 28 -8l4 4h24v-8h-120zM40 58l4 4v4l4 -4h68v-8l-68 -4zM40 78v12l8 8l4 -4l4 4h56l8 -8v-12l-8 -12l-4 4h-60zM40 110v8l8 8h12l12 -8l8 8h32l8 -8v-8l-8 -8v4l-4 -4h-12l-4 4l-4 -4h-8l-4 4l-4 -4h-24z M124 62l4 4l-4 20v4l8 12l-8 8q6 16 12 16h28l8 -8v-24l-4 -4l4 -4v-28q0 -8 -12 -8q-36 1 -36 12zM144 22l4 4h16l8 -8l-4 -4h-16z" />
<glyph unicode="/" horiz-adv-x="544" d="M40 -30q0 22 16 28h76v-4l-24 -24h-68zM64 30l28 80q44 -5 44 -12l4 4h48l4 -4h4q-28 -80 -40 -80l-16 4l-16 -4l-8 8h-44l-4 4h-4zM96 114v16h8l16 -16h-24zM132 214q252 672 268 700h12l4 -4l4 4h24l4 -4l4 4h28l4 -4l4 4h8l8 -8l-296 -772h-4q-72 72 -72 80z" />
<glyph unicode="0" horiz-adv-x="492" d="M40 182v16l64 32q0 9 40 16q0 12 -60 12l-20 8l-16 -4l-8 8v48l8 8l8 -8h28l72 8l12 -16v-24h-8l-4 4l-36 -12v-12h20l28 8v-28l-8 -12q9 -9 12 -60l-4 -4q38 -44 64 -44h32q0 -52 40 -76h12l4 20q0 37 -48 44l-8 16l32 16l4 -4h4l-4 4v8q16 18 16 56v16h4l88 -48v-4 q0 -9 -36 -12q-27 -12 -36 -24v-8h8l16 4l12 -4q0 9 60 28h4l12 -8q-58 -160 -192 -160h-20q-124 0 -188 144zM40 354v108q0 8 12 8v4q-12 0 -12 8v40l8 8l8 -8q30 15 32 24v8l-8 8h-8q-13 0 -28 -12h-4v132q13 100 44 100q0 31 72 72l4 4h4l4 -4v-8l-8 -8l-8 8v-4 q0 -20 40 -68h8q0 43 -24 68q8 32 60 32h36l20 -20l16 12q20 -5 20 -12l-4 -4v-4q40 0 40 -12v-24l4 -28l4 4h4l12 -8q16 0 16 16h8q40 -64 40 -112l-12 -16q-34 0 -84 64l-28 28q24 28 24 48h-8l-32 -28h-4l-80 80l-40 -4l104 -108v-8l-8 -8q-20 12 -40 12h-4 q-68 -10 -68 -68l-4 -4h-48v-12l8 -8h20l20 4v-268l-8 -8l-4 4l-32 -12q0 -10 40 -12l4 -4v-4l-4 -4v-4l-40 12h-40l-40 -4zM72 650l4 -24q13 10 28 76l-4 4v24h-4q-17 -3 -24 -60l4 -4v-12zM88 618l8 -8h28l8 8l-4 4h-20zM164 86h4v20h-4v-20zM184 58h4v24h-4v-24zM296 718 v8l8 8q72 -56 72 -104q12 -39 32 -60v-4h-12l-20 -4l-4 4q0 -12 -16 -12v-4q26 -16 56 -16l40 8v-36h-4l-12 12l-4 -4h-4l-32 12v-36l-20 4l8 -36l-4 -4h-32l-28 -4l-4 4v216q0 26 -20 48zM316 246v36l4 4l-4 4v36l8 12l-8 24v32q0 8 12 8v4q-12 0 -12 8v8q0 12 40 16v-4 l4 4l20 -4l12 4l4 -4q0 8 12 8l-4 4q4 32 12 32l36 -24v-192l-4 -4v-4q-20 8 -60 8l-40 -8v-4l28 -8h76v-60l-12 -12q-110 60 -124 76zM332 470h20v4h-20v-4zM376 346l36 4q0 10 -16 12l-20 -4v-12zM416 566l8 32h4l20 -20l-12 -12h-20z" />
<glyph unicode="1" horiz-adv-x="324" d="M40 702v44q3 9 56 24l20 12l4 -4v-16q0 -9 -20 -12v4l-4 -4h-24v-8q16 0 16 -8l-36 -36zM132 786v4l12 12l8 -8l-8 -8h-12zM148 6l12 12l24 -12v-8h-28zM148 50v44l8 8l96 -100l-4 -4h-24l-52 24v8l8 8l-4 4v24h-4l-20 -16h-4zM148 122v240l8 8q128 -127 128 -140l-4 -4 l4 -20v-8l-8 -8l-72 16q-31 -28 -40 -28v-4l60 -52q0 -36 8 -36v8h4l-4 4v12l4 4v4l48 -32v-80l-8 -8h-4zM148 434v48q0 8 16 8v4q-16 0 -16 8v60l8 8q72 0 72 12q-13 8 -52 8v4l-4 -4h-16l-8 8v20l8 8h4l12 -4l16 4q60 -2 60 -8l4 4h24l8 -8v-48l-4 -24l4 -20v-16 q-3 -9 -64 -44l-28 -24v-16q21 20 56 20l-8 12l40 24l4 -4v-8l-4 -4l4 -4v-20l-4 -4l4 -4v-36l-4 -16l4 -4v-4l-4 -4l4 -28v-40l-8 -8l-32 36v4q12 0 12 8v4h-28q-64 53 -64 80q-16 0 -16 12zM200 794q28 28 44 28h8v-28h8v-4l-4 -4l4 -12l-4 -16q5 -16 28 -40v-4l-4 -4 l4 -20v-16q0 -8 -32 -12l-4 4h-4l-12 -4l-4 4v4l12 36l-8 8v8l4 4v4q-8 0 -8 20l-4 4h-4l4 20v4q-17 0 -24 16zM236 854v8h32v-8l-4 4h-4l-12 -12q0 8 -12 8zM260 810v4l8 8l8 -8l-12 -8zM276 250v28l4 -4h4l-4 -24h-4z" />
<glyph unicode="2" horiz-adv-x="500" d="M40 6v12h8l16 -16v-4h-16zM44 610v4l4 4v4l12 -4l32 4v4q-16 0 -16 8t16 8v4q-12 0 -12 8h-24l-12 8q0 93 104 176l20 4q17 0 108 -100v-4h-32q-42 0 -64 -64h-8q0 16 -12 16q-24 -8 -24 -16q6 -16 32 -16v-8q-55 -36 -72 -36q0 -14 -16 -20h-8zM60 146v8l40 56h8v-4 l-4 -4l8 -44h12l4 28h8q0 -21 28 -44v-28l-8 -8l-12 24h-4v-4l4 -24v-4l-8 -8l-64 60l-4 -4h-8zM108 706l8 -8h20l-4 4v4l12 20l-12 8h-4l4 -4v-4q-16 -5 -24 -20zM120 594v8l20 4h24l8 -8l-4 -4h-48zM124 246l4 4h8l4 -4l4 4h28l4 -4h4l8 8h20l8 -8l-4 -4l24 -4l20 12h4 l12 -8q-28 -49 -36 -52h-4l-4 4h-4l-4 -28h-4q-26 29 -60 44l-24 -8q-8 16 -8 44zM156 290q16 31 32 40l48 -52v-8h-4zM204 218h8l4 16h-8zM220 378v4l24 32h4l4 -4h4l4 12l4 -4h4l16 4l4 -12q48 10 48 40q-14 16 -28 16l-32 -8l24 60h28v12h36l16 -4q52 8 52 16v8h-20v8h20 l-12 20v4h8l-4 4v4l8 8h16q12 0 12 -16q0 -39 -28 -68l4 -4q0 -38 -44 -64v-4h8q-18 -68 -64 -68h-4v-4l16 -4l4 4l4 -4q-23 -42 -44 -60h-20l-52 52v4h16v4q-36 0 -36 12zM272 122v8h88v-8q-12 0 -12 -8q23 -36 40 -36l32 20l36 -40v-52l-8 -8h-16q-27 31 -32 52 q-12 0 -20 12q-36 0 -76 40zM332 678l4 4h4l48 -52l-48 -16l-4 4v4l4 20z" />
<glyph unicode="3" horiz-adv-x="496" d="M40 178v36l8 8h24l8 -8v-108h-8q0 37 -28 56zM104 50l4 4h4l16 -8v4l-4 28l64 64h4q24 -16 72 -20v-4l-4 -4v-4l-64 12q-16 -5 -24 -20v-4l12 -16v-4h-12l-12 4v-4l-8 -16l4 -4v-16h-8v-8l8 -12l-4 -4v-4q-42 20 -48 36zM108 758v48l24 24l48 -40v-4q-56 -7 -56 -20v-8 q0 -7 24 -12q20 0 56 28l28 -24q-18 -20 -28 -20l-20 8l-4 -4v-4q0 -8 20 -8v-12l-8 -12l-20 8h-4v-4q16 0 24 -16v-12l-24 -24h-44l-4 -4h-4l-4 4zM124 110v64q14 11 20 44h-8l-4 -4h-4l-4 4v4l40 8l16 -76l-52 -48zM144 742l8 -8h20v8h-28zM156 26v8q0 8 40 16v-4l-28 -28 q0 8 -12 8zM192 14v8q0 28 48 28q0 -8 20 -8l4 -4v-40l-8 -8h-8v4l4 4q0 19 -32 32l-12 -4v-4l24 -28v-4h-4q-29 0 -36 24zM192 398v56q0 8 24 8v4q-24 0 -24 8v20q0 24 46 32q58 10 70 20q8 0 8 -12q0 -13 -16 -36v-16l8 -12v-4l-16 -20v-4l12 8l8 -8l-4 -4l12 -20l-8 -8h4 l4 4h4l4 -4v-4q0 -16 -32 -48l-20 16v92l-4 28h-4l-4 -24l4 -4v-4l-4 -4l4 -4v-56l-4 -4l4 -4v-4l-4 -4v-4q-72 10 -72 20zM204 862v8l36 4l4 -4v-4l-20 -8zM208 58v4l4 20h16v-4zM232 430l8 -8h16v8h-24zM232 818l4 20l-4 16h4l8 -8v-12l-4 -4v-4l60 -20v-8q-17 0 -32 -12z M276 -2v32l4 4v4l20 -12l4 4l16 -24q0 -12 -40 -12zM304 754v8h20l4 -4h4l8 16l-12 20v4l20 -4q26 0 48 24q60 -62 60 -144l-4 -4v-4l4 -24l-4 -4h-4q0 8 -12 8l-4 4v4l12 4v4l-4 4v4l4 4l-36 12q0 -9 28 -12v-8h-8q-36 4 -36 36l-20 -4l-44 40h4l56 -16h4q-17 24 -32 28 l-20 -4zM328 10v4l68 64l12 -12v-4q-41 -45 -76 -56zM328 186l4 4v28h8l8 -20l-16 -16zM332 618l8 12l-4 4v24l8 8l24 -24v-4l-20 -4l8 -24v-4h-12zM348 218l4 4l12 -4v-4l-8 -8zM408 86v4l40 40v-4q-16 -52 -32 -52z" />
<glyph unicode="4" horiz-adv-x="460" d="M40 194v16l4 4l-4 4v8q28 36 40 36l24 -28q-18 -8 -20 -16v-20l28 -4h12v-8h-76zM96 270v4q30 -5 32 -16v-16h-4zM120 506q61 157 88 160q0 7 60 60h4q0 -8 44 -52q0 -8 -20 -8q0 -22 -96 -108l-12 8h-4q0 -37 -52 -76q-10 0 -12 16zM132 186v4l8 8l4 -4v-4l-4 -4h-8z M136 290l12 8l52 -16q0 -24 -20 -24v-4h8v-12l-16 -8h-4v4l4 4v4q-23 13 -32 28h8zM140 326v4l44 44h4l-20 -56h36l4 -4h4q-9 -24 -16 -24zM208 698v4q28 92 40 92h16l4 -20v-20l-12 -12h-4v8h-12l-4 -16l4 -12l-28 -24h-4zM248 810q0 24 32 24l4 4v4q0 8 -12 8l-4 4v4l4 4 h100v-4l-68 -68h-4l-28 24l-4 -16h-8zM272 382v32l4 4v4l28 -4h32v-24l4 -20h-4l4 -12l-4 -4v-4l4 -16l-8 -8zM272 438v24l48 48h8l8 -8v-68l-8 -8h-44zM276 186h4l4 -4h4q6 68 24 68h4l24 -16v-20q0 -40 -56 -40zM280 6l24 24q18 -7 32 -28l-4 -4h-44zM308 282v4h4l12 -4 v-8h-8zM316 774q76 84 84 84h4v-92h-8q-3 24 -24 24v-4q0 -16 -12 -16q0 8 -12 8t-12 -20h-4zM320 254v4h12l8 -8l-8 -8zM324 722v4h8l4 -24h-8zM352 14v8q8 16 20 16v12q-20 3 -20 12v20l12 12l12 -8q0 39 24 48l4 -4v-124l-8 -8h-28zM352 318v52l8 12l-8 8v16l4 12l-4 20 v48h28l20 16l4 -4v-176q-16 -24 -32 -24zM352 538q6 19 48 52l4 -4v-60l-8 -8l-8 8l-16 -4q-18 8 -20 16zM396 198q0 9 20 12l4 -4v-4l-12 -12h-4z" />
<glyph unicode="5" horiz-adv-x="488" d="M40 210l16 12l4 -4l4 4h8v-8q-16 0 -16 -8l88 -4h20q9 0 20 -48q25 -28 48 -28h4l48 8l12 -4l36 4h4l20 -4q0 15 44 24l-8 8l4 4v8q-56 16 -56 32v8h4l4 -4l24 4v4q-60 0 -60 16l8 8h72l8 -8h-4l4 -4v-4l-4 -4l4 -12h12l32 36h4v-32q0 -104 -28 -104l4 -4v-4 q-22 -48 -84 -88q-25 -16 -48 -16q-8 0 -8 12h-4q0 -20 -8 -20h-24q-8 0 -8 12h-4q0 -12 -12 -12q-60 0 -116 52q16 6 16 12q-8 8 -36 8l-12 16q0 8 12 8l4 4v4q-48 0 -48 84zM56 490v4l4 4v4l4 -4h4q20 11 20 32l-32 24v296l8 8h4l8 -8q-3 -52 -12 -52q40 -80 56 -80l24 -4 h20l20 4l4 -4v-116l-8 -8l-20 4h-8v-4q20 0 20 -8q-8 -24 -40 -24v-4l4 -12l-68 -64zM92 454v8q77 83 104 100l28 -4h24l40 4v4h-80v4q7 12 52 28h28q80 0 120 -56q0 -21 -20 -32h-16l-4 4l-44 -12v-4q72 0 72 -12v-52l-8 -8h-20l-16 4l-16 -4q-28 17 -40 44q-20 20 -52 20 q-45 0 -56 -68v-24l-8 -8h-24zM108 642q0 -8 40 -16h4v4l-36 12h-8zM128 66l8 -8l56 8v8h-40zM136 158l8 -8h8v20l-8 8h-8v-20zM140 30h8q26 10 28 20h-8q-28 -14 -28 -20zM168 102h36v8h-4l-12 -4v4l-20 -4v-4zM180 50l8 -8h24v8h-32zM196 730v8q32 4 32 32h4l28 -4l-20 28 v4l16 24l-4 4h-4q9 36 16 36h128v-4l-48 -64h4q41 59 56 68h24l8 -8q-32 -57 -32 -84h4l28 8v-40l-8 -8h-124l-4 4l-4 -4h-100zM304 742h4l28 40h-4zM312 262v8l4 4l-4 4v36l8 8h28q0 12 12 12l-8 8h-24v-8h-8l-8 8v4q0 12 92 12v4h-88l-4 4v16l4 4l-4 4v16q0 7 12 8l68 4 v-4l-8 -24l4 -4l4 4h8v-20h4q29 83 36 84h4v-40l-44 -120h-56v-4h56l4 -4v-4l-8 -36l-20 4h-52zM328 102h20v4h-20v-4zM348 470h36v4h-36v-4zM396 102h16v4h-16v-4z" />
<glyph unicode="6" horiz-adv-x="476" d="M40 190v172l8 8l48 -4l72 4l4 -4v-4l-4 -4l4 -4v-20q0 -12 -52 -12l-4 4l-4 -4h-4l-4 4l-20 -4v-4l20 -4h44l20 4l4 -4v-100q0 -8 -24 -8q0 -7 24 -16l8 -36q-24 -8 -24 -16v-16q60 0 60 -40l-4 -12q28 5 28 12v28h8l12 -20v-4h4l4 12l-4 4v4l8 20h-8l-12 -8h-8v8 q52 11 52 76l8 8q33 -15 104 -24l24 -20v-4q0 -8 -16 -8l-4 -4v-4q12 0 12 -16q-53 -140 -184 -140h-36v28h-4v-12l-40 12q0 -9 20 -12v-8q-96 41 -96 72l4 12h-4l-4 -4h-4q-36 50 -36 112zM40 386v4q0 8 40 8v4q-40 0 -40 8v260q0 143 144 196l20 4l-4 -28l4 4h4l12 -4v4 q6 28 16 28h28q7 0 12 -36l-4 -16l4 -20q8 0 20 60h4q60 0 120 -116q0 -22 16 -72h-4l-16 12l-4 -4l-20 4h-4l-20 -8v-12l36 -4l20 4v-8l-12 -12h-80l-16 4l-16 -4q0 96 -68 96q-48 0 -64 -64l4 -4v-172q29 24 44 24h4v-4q-53 -36 -72 -36l-4 4v4l8 8l-48 24l-4 -4v-8 q0 -19 28 -48l-16 -8v-12h36q20 0 20 -8l4 4h44v-8h-20l-40 -4v-4q44 0 44 -8l-12 -8h-76l8 -8h60l-8 -24l-20 4h-60l-20 -4v4l-4 -4h-20zM72 654l12 -12h12q16 7 16 28l-20 -8l-16 4h-4v-12zM72 690h4l12 -8l32 64l-4 20h-12q-18 -24 -28 -24l4 -4v-4zM96 66h4l24 20h-4z M120 66q24 -4 24 -12v-4l-4 -4v-4h4l12 12l4 -4h8v4q-8 0 -8 16h-4v-8h-4l-28 8h-4v-4zM232 530l4 4h20l-12 -12h-4zM272 418v8l12 12h8l8 -8q36 4 80 24v-4q16 0 16 16h4l8 -8q-9 0 -20 -36l24 24h4l4 -20q0 -18 -40 -52q0 -12 -8 -12l-4 4l-4 -4h-60q-9 0 -12 28zM296 314 v40h100v-8q-40 0 -80 -28zM300 98q7 -68 24 -68h8q12 4 12 24v8q0 60 -32 60zM324 754l16 -4l12 4v12h-20l-8 -8v-4zM392 366v4l32 36h4l4 -40l-12 -4zM396 750h4l4 16v4h-4l-4 -16v-4zM408 346v8h20v-8h-20z" />
<glyph unicode="7" horiz-adv-x="472" d="M40 738v116l8 8h60q0 -8 12 -8q0 -35 72 -120l-4 -4h-52l-12 8h-20l-12 -8h-44zM44 834q10 -24 36 -24q16 4 16 24q-15 12 -28 12q-12 0 -24 -12zM124 -2v4q4 44 16 44q26 -12 76 -20h4v4q-84 20 -84 32l16 60h4q5 0 16 -40q40 0 40 -24l4 -20h24l12 12v4l-20 20 q8 18 16 20l20 -8q-11 -88 -24 -88l-4 4l-28 -4h-88zM192 858l4 4h140v-8h-8v-4q17 0 28 -24v-4q-24 0 -24 -8v-8h4l4 4h4l4 -4v-4l-16 -4l8 -8l20 20h4l4 -4q20 -9 20 -28l4 4q24 -3 24 -8l4 4h4l8 -8v-28q0 -23 -32 -144h-8q-54 82 -88 112l-4 16l4 4q-20 1 -68 72v8h8v4 l-40 28zM200 314q0 48 32 48v12q-16 0 -16 12l4 4h4q44 0 44 -60q12 -9 12 -20h4q0 12 8 12q12 0 12 -16l4 4h4l12 -20q-13 -64 -28 -64q-36 16 -44 28l12 12l24 -4h16v4q-36 0 -36 12v4q0 8 16 8v4q-11 0 -28 20l-24 4h-4zM220 402l24 72l-4 4v4q7 28 16 28l32 -44 q-12 -9 -12 -28q-20 -12 -20 -28l4 -4l-4 -4h-4v4l-28 -8zM248 822h28l8 8v4h-8l-28 -4v-8zM252 526q8 60 28 60l28 4l68 -96l-4 -4q-24 16 -40 16v-4q0 -11 -36 -24zM272 606v4l12 12l8 -24h-12zM284 570l20 -4h8l-8 8h-20v-4z" />
<glyph unicode="8" horiz-adv-x="504" d="M40 198v4l8 8l4 -4v-4h-4q6 -16 20 -24l60 24l24 -32q-49 -27 -52 -40h4q21 0 56 28q52 -54 52 -68q-14 -32 -20 -32l-36 4h-8v-4l40 -8l-4 -28v-8h-12l-60 80l4 4l12 -4l20 4l28 -4v8q-32 0 -44 12l-4 -4h-4l-16 8l-4 -4h-4q-60 63 -60 84zM40 278v28h4q15 -9 28 -32v-4 h-24zM44 150l4 4h4l108 -140v-4h-4q-53 24 -84 80q-13 0 -28 60zM48 602h4l-4 4v56q0 133 104 192h12q0 -26 36 -76h8v12q0 39 -20 56l-4 -4h-4l-12 12q4 12 24 12q32 -20 128 -108l-20 -24q-21 16 -36 16h-24q-29 0 -56 -28l-4 4h-4l-12 -4v-12l8 -8l-4 -48v-12 q0 -120 80 -120l52 12v-104q0 -8 -12 -8l-4 -4v-4q16 0 16 -8v-4l-24 -24l-12 24h-8l-8 -8l4 -20q-69 0 -80 -88v-4h-8l-88 112q5 13 64 64l4 20l-24 24h-8v-4l12 -28h-4q-43 36 -44 56h4l16 -4q0 16 24 16q40 21 40 32l-16 -4l-36 4q-36 -6 -36 -36q-12 0 -24 68zM80 694 l28 -4l20 4v4h-48v-4zM92 658q0 -12 36 -12h4v4l-36 8h-4zM120 674h44l-8 8h-36v-8zM172 398l4 -4h4q17 40 40 40l16 -4l4 4v4q0 9 -32 20v4l8 44l-4 16h-8v-4l4 -28q-36 -43 -36 -92zM196 -6q13 48 24 48q6 0 20 -40l-12 -12zM216 50v12h8v-12h-8zM216 382h4l20 4v8h-24 v-12zM220 870l4 4h36q85 0 128 -52v-4l-4 -4l4 -16h24q36 -49 36 -84l-4 -4l8 -8v-24h-4q-8 0 -96 80q24 17 24 36l-4 4l-36 -24h-4zM260 466l8 -8h16v12l-8 8q0 -12 -8 -12l-4 4h-4v-4zM276 826h32v8l-20 4h-4l-8 -8v-4zM280 374l16 16l4 -4v-16l-8 -8zM288 122v12l8 8h8 l4 -4l4 4h4q51 -40 64 -40h4v8q-8 0 -52 40l40 8l28 -36h4q21 0 24 12v12q0 6 -32 20v-8h-8q4 36 12 36h52q-6 48 -20 48l-8 -8l8 -28h-36l-8 8v8l44 44l4 -4h4v16h4l20 -24v-44q-12 -132 -48 -132q0 -25 -48 -56q-17 13 -80 100zM296 854l8 -8h24v8l-12 4zM304 350 q4 68 24 68l4 -4v-4l-4 -4v-4q12 0 12 -8q28 4 28 12v16q-16 0 -16 12l-4 -4h-8l20 20h8q28 -15 28 -36v-32h16l12 8q12 0 28 -52v-4h-8l8 -12q-69 -80 -92 -80l-4 -4q0 -12 -8 -12h-4q-18 0 -20 92zM308 414v104h8l52 -52l-52 -52h-8zM312 542v8q26 40 24 84t-24 96l24 16 l116 -100l-8 -8h-12q0 11 -24 16l-16 -4v-8q60 -10 60 -16q0 -49 -16 -92h-8l-4 4l-4 -4h-4l-68 28h-4v-4q6 -18 52 -52v-16h-8l-4 4l-20 -8zM372 318h20v4h-20v-4z" />
<glyph unicode="9" horiz-adv-x="476" d="M40 178l4 4h4l4 -4h4q32 4 32 12q0 9 -48 16v4l8 8h36l48 -32q-10 0 -20 -12q-20 0 -20 -24h-20v-4q14 0 16 -28l-8 -8l12 -12l-4 -4v-4l4 -24v-8q-7 0 -24 28l8 8q-28 0 -36 84zM40 498q17 16 40 16l104 -88v-4l-20 -40v-52h-4q-64 0 -108 108l-4 20v8l44 -8l16 4 q-4 12 -24 12h-40zM40 578v12q3 12 32 12h16q0 9 28 32v8q-36 6 -36 12l-4 -4h-4l-4 4l-4 -4h-12v4q43 56 80 56h8v8l-4 20l40 40h-4l-60 -60l-56 -52l-12 -8l-4 4v28l20 28v4q-12 0 -12 8l4 4h4l-4 4v4q57 132 184 132h24l8 -8l-20 -20v-4h4l24 28q52 0 116 -76l-8 -12 q28 0 28 -24q12 0 24 -92h-4l4 -4v-8l-4 -16l4 -12l-4 -4h-12q-55 16 -80 16h-24q-10 0 -12 16l4 4v4l-16 52q-24 24 -52 24h-8q-56 0 -56 -88v-20q-10 -16 -84 -32l-12 -16l36 -4q32 7 32 16q28 -4 28 -12v-36h-8l4 4v4h-4l-52 -4l-36 4l-16 -4zM44 582q0 -12 40 -12 q-2 12 -32 12h-8zM92 54v4l20 -16l4 4h8l8 -8v-16h-4zM112 402l8 -8h20v8h-28zM116 418l4 -4h12v16l-8 8v-4l4 -12l-4 -4h-4v8h-4v-8zM136 14v4q3 20 12 20h4l8 -8q-8 -16 -24 -16zM136 630l20 -4l4 4v4h-24v-4zM140 490v4h24l4 4h4q20 -56 56 -68v-12h-4zM172 -2v24h8v-12 h4l4 24l28 -8q0 32 36 32q4 -20 36 -20l20 -28v-8l-60 -12h-16zM180 838l8 -8h28l8 8l-12 8h-32v-8zM184 782l60 52v8l-60 -52v-8zM188 370l12 36q21 0 48 -36v-4l-4 -16l8 -16l-24 -8zM248 118v4q24 0 52 36h8l-8 12q0 24 32 24q16 0 16 8v4l-20 24v4l48 4h20v-4 q-80 -91 -80 -116l-4 -16l-44 8v-8h-12zM292 38l20 16l8 -40l-4 -4h-4zM304 530q0 8 32 12l16 -4h12v-8l40 4l8 -8l-4 -4v-4q18 0 28 -16v-24l-4 -4l4 -4v-8l-4 -4l4 -4v-52l-4 -4l4 -4v-52l-4 -24l4 -20q0 -31 -20 -40q-18 7 -32 28q0 8 12 8l-4 4v12l8 12l-4 4l12 4l-8 16 q0 16 24 16q0 6 -32 20v4l4 4v4q0 20 -16 20q-9 37 -56 84zM304 554v8q0 9 36 12q25 -8 28 -20l-48 -8v4l-4 -4h-4zM308 770h4l4 12h-4l-4 -4v-8zM352 254v12l8 8h4l20 -16v-4h-32zM356 126v16q0 21 64 80h4l12 -12q-4 -88 -24 -96h-4l-4 4l-4 -4h-32zM360 106h52 q0 -22 -40 -60h-4v4zM392 642l24 -8q0 8 12 8v8l-12 4q-24 -5 -24 -12zM408 574v4l16 16v4h12v-4l-4 -4l4 -20v-4l-8 -8h-4q0 12 -12 12z" />
<glyph unicode=":" horiz-adv-x="216" d="M40 366l4 4v4l-4 4v4l4 4l-4 20v48l8 8h68l8 -8h-4l4 -4v-24l-8 -8l-8 24h-8l-12 -24l4 -4v-16q0 -8 -44 -8v-4h44l4 -4v-4l-20 -20h-28zM40 470v12l8 8h68l8 -8v-4l-8 -8h-12l-60 -4zM56 118l8 8l8 -8l-8 -8zM60 2v20q12 0 12 16v4h-4v-8h-8v40l8 8l4 -16h4q0 16 8 16 l-4 4v4l8 8h28l4 -4h4l-4 -4v-4l4 -24q0 -8 -36 -8v-4q36 0 36 -8l4 4h8l4 -4h4l-4 -20v-20q8 0 12 44h8v4q-32 4 -32 12v28l12 12h24q9 0 12 -28h-4l4 -4v-4l-4 -24l4 -12l-20 4v-4l20 -28l-8 -8h-100zM60 90v4l4 4h4l4 -4v-4l-4 -4h-4zM80 118l8 8h28l8 -8v-4l-20 4h-16 v-8zM112 402v4l4 4h4l4 -4v-4l-4 -4h-4zM124 358v4l12 12h4l4 -12l-4 -4h-16zM128 114v4l8 8h8l8 -16v-4h-4l-4 4l-4 -4h-4zM128 426v20l4 4l-4 4v4l4 4l-4 4v12l12 12h28l8 -8v-12q0 -21 -40 -52zM148 362v24l24 24l4 -12l-4 -4v-4l4 -12h-4l4 -4v-4l-8 -8h-20z" />
<glyph unicode=";" horiz-adv-x="212" d="M40 370v84l8 8h64l8 -8v-8l-76 -76h-4zM40 474v8l8 8h20l8 -8v-4l-12 -12h-16zM56 2q25 40 76 40v-8h24l16 -16l-4 -4h-4l-16 4l-12 -4v-4h8v-4l-4 -4v-4q32 0 32 -8l-12 -12h-4l4 -4v-4l-12 -28h-4l-4 4h-4v-8h-8v44h4l12 -4v4q0 15 -60 32q0 -6 32 -24l4 -4v-28l-4 -4 l4 -4q-3 -56 -12 -56h-4l-4 4h-4l4 20v28h-4l-8 -32h-4q-8 0 -8 12l20 68h-32zM56 106v8l8 8l4 -4v-8l-8 -8zM60 358v4l44 44h12l4 -4h4l8 8h4v-4l-4 -4v-4l4 -4h4l-4 -4v-16l8 -8q0 32 12 32h12v4h-20v4l4 4v4q-24 4 -24 12v4l40 44l4 -4v-104l-8 -8h-80l-12 8l-8 -8h-4z M68 -98l8 8l12 -12l-4 -4h-8zM80 478v4l8 8h32v-20h-32zM100 54q11 36 16 36q8 -3 36 -48l-4 -4h-8v8q-40 0 -40 8zM120 122l4 4h20l8 -8v-8l-4 -20h-4q-7 1 -24 32zM124 458q4 32 12 32h24v-4l-32 -32zM156 94l12 12l4 -4v-16l-8 -8zM160 66l8 8l4 -4v-12h-4zM160 114v4 l8 8l4 -4v-4l-8 -8z" />
<glyph unicode="&#x3c;" horiz-adv-x="516" d="M40 388v84q25 24 56 24l8 -12l24 4l-8 20q31 20 124 56l4 -4v-4l-20 -64q12 0 12 16h8v-48q0 -6 -64 -28q0 -7 36 -20v-4l-4 -4l4 -4h-8l-4 4h-4v-4l8 -12l-32 -32v-4h4l28 20l28 -68v-8h-4q-191 82 -196 92zM164 444h32v8l-28 4l-4 -4v-8zM216 504h4v16h-4v-16zM240 384 q6 16 12 16q12 0 12 -16h16q108 -36 108 -48l-72 -68l-8 8v4q20 0 20 28v8h-4q-22 0 -36 -24v-4l4 -4v-4l-4 -4h-4l-8 8l12 68h-4l-12 -8h-4l-8 8v32h-8l-4 -4h-4zM260 472v44h8l12 -32q-5 -20 -12 -20zM260 568q0 7 176 76h4v-4q-94 -156 -124 -156l-12 -4q0 46 -44 88z M344 256l76 72h4l12 -12q-15 -16 -32 -16l4 -20q-21 -44 -32 -44q-32 14 -32 20zM360 508v4q48 58 48 72q47 76 64 76l4 -4v-4l-8 -24l8 -8v-4l-64 -92h-4l-4 4h-4q-5 -13 -36 -24zM412 548h4l8 8v8l-8 8v-4l4 -4v-4l-8 -8v-4zM428 228v20h4l12 -12l-12 -12zM428 532v4 l44 64l4 -4v-4q0 -44 -8 -44zM440 216q14 59 32 88h4v-72l-4 -4l4 -4v-4l-4 -4l4 -4v-12h-8q-21 0 -28 16z" />
<glyph unicode="=" horiz-adv-x="524" d="M40 308l4 4h4l8 -8q0 11 48 52l8 -44l12 8l-4 4l4 20l-4 4v4l4 4v4l-4 4v4q7 18 28 32h68l8 -8l-4 -4v-4l4 -20h4l4 28l-4 4l4 4h244l8 -8v-12l-8 -12l8 -8v-12l-4 -4v-4l-32 8h-8q-8 0 -8 -12q-8 0 -8 12h-4q0 -16 -8 -16h-28l-8 8q3 24 12 24h68l8 8q-88 7 -88 16v8h-4 q0 -24 -44 -24v-4q32 -4 32 -12v-16l-8 -12q12 0 12 -16h8l4 12q36 -16 104 -16v-8h-200q-8 0 -16 68h-4l-4 -28v-32l-8 -8h-200zM40 332v60l8 8h52q0 -22 -56 -68h-4zM40 496l4 4h4l8 -8l48 52l8 -52l-4 -4h-60zM40 520v60l8 8h60v-4l-64 -64h-4zM120 500l4 4v4l-4 4v4 l4 16l-4 12h4l-4 4v8l32 32h8l4 -4h4l-4 -48v-20l-4 -4l4 -4v-12l-8 -8h-28q-8 0 -8 12zM180 512h4l-4 12l4 24l-4 32l8 8h108v-4q0 -10 -52 -12v-4l28 -4v-8q-12 0 -12 -12l-52 -48h-4v32h-4q0 -40 -8 -40q-12 4 -12 24zM208 316h4l4 20v12h-8v-32zM240 496l12 8l4 -4v-4 l-8 -8zM244 380l20 -4h36l28 4v4l-36 4l-48 -4v-4zM272 496v28q34 44 56 44l-4 4v4l12 12h32v-8q-10 -20 -40 -20v-4q12 0 12 -8v-4q-12 -15 -12 -28l28 24h4v-12l-8 -12v-4q12 0 12 -12h8l4 12l40 -12v-4l-8 -8h-128zM376 528v8q0 8 24 16q20 -2 20 -24l-12 -8h-24z M376 568v4q6 16 12 16h88l8 -8v-44l-4 -4v-4l-36 8l-12 -4l-4 12l36 12v4q-35 4 -44 12l-8 -8q-16 4 -16 16h-4q0 -12 -8 -12h-8zM424 496h56v-8h-48z" />
<glyph unicode="&#x3e;" horiz-adv-x="512" d="M40 200v12h4l8 -8l-8 -8zM40 232v68q24 22 96 44q12 -12 12 -28h12v-64q0 -12 -60 -28h-8l-36 8l-12 -4zM40 556v20h8l4 -28h-4zM40 632v20l8 8q63 -25 96 -48q-40 -40 -52 -40q-24 39 -24 60l-4 -4h-4zM72 280l8 -8h16l4 28l-20 4zM116 532v12l40 40l4 -4v-68 q0 -8 -12 -8q-23 8 -32 28zM144 340v12h16v-4l-8 -8h-8zM164 252v60l8 8q41 -36 56 -36v-4q-39 -28 -60 -28h-4zM164 504v88l12 12q110 -44 136 -64q-36 -34 -36 -72l4 -12q19 6 44 68l12 8q80 -27 80 -36q-24 0 -40 -52l-36 -52h4l48 8h8q23 0 44 -16q12 15 12 28 q-40 50 -40 80v4h4q52 -14 52 -24v-24l-4 -44l4 -24l-232 -100q-36 16 -36 44h8l12 -8v16l-8 8q-12 0 -12 -12l-16 20q7 0 36 36l104 40v8q-68 22 -68 33t-8 11l-8 -8l-68 28q-12 0 -12 8zM168 324v28l28 -36v-4h-4zM268 352l20 -44h4q0 15 12 32q0 32 -32 52l-4 -4v-8 l4 -28h-4z" />
<glyph unicode="?" horiz-adv-x="492" d="M40 688q0 92 96 164q33 19 96 28l4 -4l16 4q90 -9 100 -28v-4q-38 0 -48 -52v-24l8 -12q88 18 88 48h4q48 -58 48 -148q0 -131 -128 -256l-44 116h4q25 -18 80 -32l12 16l-4 4v4l4 12q-49 72 -68 72v20q9 24 48 24v4q-44 4 -44 16v28q-11 72 -68 72q-62 0 -80 -104h-4 q-72 11 -72 20l-8 16q5 44 12 44l-4 4v4l4 4v4l-12 12q-15 0 -24 -40v-40l-8 -8q-8 0 -8 12zM152 8v88l8 8h64l8 -8v-28q0 -8 -20 -8l-4 -4v-4l24 -4l36 4v4q-28 3 -28 12v32l4 4l-4 4v16l8 8h28l8 -8v-116l-8 -8h-116zM152 116v8l8 8h12l12 -8l8 8h36l8 -8v-4l-12 -12l-4 4 l-4 -4h-12l-4 4l-4 -4h-36zM152 228v52q0 113 48 152q0 14 52 64h4v-56l-4 -4l4 -4v-4l-4 -24l4 -16h-4l4 -4v-4l-4 -4l4 -12l-4 -4q8 -36 8 -96v-36l-8 -8h-4l-12 8l-8 -8h-36v4l12 16v4q-8 8 -8 32h-4q0 -24 -16 -24l-16 -4v-8q12 0 20 -16v-4h-20zM176 816l4 -24h16v20 l4 4q-5 24 -12 24q-8 0 -8 -24h-4zM208 340h4v28h-4v-28zM236 428h4v40h-4v-40zM248 16l4 -12h4l4 16l-4 12l4 12h-8v-12zM268 224v40h8v-40h-8zM280 532l4 20h8l4 -20h-16zM416 628l16 -4v16h-16v-12z" />
<glyph unicode="@" horiz-adv-x="956" d="M40 362l12 8l-4 4v4l16 16l-4 4v24h-8l4 40q-12 0 -12 24q0 43 32 68l12 -12l4 4h4l12 -4q60 48 60 88l-12 8l-32 -8v4l36 52v8l-4 -4h-8v4l8 20q-52 -44 -52 -56h-8v4q1 9 24 28q18 64 52 64l8 -8q30 42 152 136l28 4h4l-4 -12l12 -16h16v8l-4 28l20 4h4l12 -8h8 q0 16 24 16h96q31 0 80 -60l-8 -12v-16l12 -40q-62 20 -112 20h-12l-4 4l-4 -4h-16q-228 0 -324 -256q-6 -44 -16 -44l4 -4l-4 -128l4 -28l-24 -8v-4q30 0 44 -80q-32 -8 -84 -8v-4l40 -4h44l52 -80q106 -128 280 -128q126 0 256 92l36 -48l-12 -4l-112 -8v-4l64 -8l12 4 l12 -4l4 4h4l12 -4l4 4v-4q-10 -20 -28 -20l4 -4v-4l-12 -8h-12l-40 4v-8h20l48 -4q12 20 36 20l-8 12l16 12h4l8 -8v-8q-78 -62 -120 -64q-23 40 -76 40l-4 -4v-4l44 -44v-8l-92 -20v4q-18 -8 -52 -8q-218 0 -336 124v4h16v4q-32 0 -32 8h48v4l-28 8l-32 -4l-32 48l12 4v4 q-34 0 -48 52q-44 94 -44 188zM84 286l8 -8q28 9 28 20h-4l-32 -8v-4zM108 510h36v4h-36v-4zM196 326v20l136 32l4 -4v-8l-4 -4l4 -4v-4l-4 -4q0 -136 92 -136q20 -28 20 -48l-28 -8l-20 4l-32 -8q0 -9 56 -12l16 4l28 -4l20 4v-8l-44 -20l-4 4h-4l-24 -8h-32q-82 0 -140 84 q15 8 20 24h-8l-20 -4l-16 28l108 28l-8 12q0 8 12 8v4q-24 0 -24 8l-4 -4h-4l-4 4l-4 -4h-76q-12 4 -12 24zM196 402v4q0 126 116 272q56 46 108 52l-12 -48q28 -10 28 -20v-4q-37 -31 -56 -108l-12 -12q0 20 -44 20v-4q0 -10 32 -16h12v-4q-28 -124 -40 -124l-44 -8v-4 l44 -4v-8l-4 4h-4q-4 -12 -24 -12q-44 0 -44 12v4q23 3 44 28l-8 8h-4zM204 270v8l8 8h24l40 4v-8l-68 -16zM224 106l12 -4v8h-12v-4zM240 70l8 -8l8 8v8h-8zM292 498h32v4h-32v-4zM316 234l48 -16v8q-28 6 -28 16l-20 -4v-4zM320 22h36v4h-36v-4zM332 2h20v4h-20v-4z M428 722v8h28q59 0 88 -44l8 -8l20 -4v4l8 8h16l12 -16l36 8l12 -4l40 32h4l4 -4h4q-24 -168 -32 -168l-16 -4l-8 8l-28 -4v-4l12 -16l-24 -20v-8h4l56 12l4 -4q0 -32 -28 -32v-4l12 -4l4 4l4 -4v-4q0 -48 -24 -48l8 -20h-4q-20 7 -20 20l4 28l-16 16q0 8 20 8l4 4v4 q-28 3 -28 20l-32 -8l-12 4l-12 -4v4l-20 -4v-8l32 -4l-4 4v8q48 -6 48 -20v-4l-72 -16l-12 4q1 20 8 20l-4 4v60q0 8 24 8q12 15 12 28v4q0 12 -40 12q-22 48 -72 48v12l32 36v20l-20 20l-20 -4q-8 16 -20 16zM440 218v4l20 20l68 -4l4 -4l4 4q64 0 64 -32v-4l-12 -32 l80 64l16 -20v-8h-8v-4q47 -32 52 -48v-8q-41 -32 -104 -32h-28q-40 0 -64 32l4 4h4q4 -12 24 -12v20l-4 16l4 16l-84 16l-16 -16zM472 250v8q16 20 36 88h4q28 -3 28 -8l4 4h8l8 -8l-4 -20l24 -8l28 8l20 -24v-8q-17 -23 -36 -32h-4l-4 4l-4 -4l-24 4zM512 354v4 q6 52 16 52l32 -36v-4h-4l-4 4l-12 -4v-8h28v-8h-56zM588 366v8l28 4v-20zM600 26h52v4h-52v-4zM632 334h16v-12l-8 -8zM648 182l20 -4h4v4l-16 4h-8v-4zM656 870v4l8 8q140 -61 208 -196q32 -94 32 -128l-100 -28q-23 127 -72 176l-24 24l4 4v4q-10 0 -12 16l4 12h4 l120 -116v4l-4 16l12 4q0 23 -104 116l-8 16v4h8q-28 23 -28 40h-28zM696 250q9 0 60 60h84v8h-60l-8 8q18 16 36 16v-4l12 4v4h-16v4q68 68 88 68l8 -12q-17 -96 -44 -96h-4v-4q12 0 12 -8q-22 -56 -48 -56h-16v-4l20 -4v-8q-17 -36 -64 -36v-4q16 -2 16 -12q0 -9 -20 -12 v4q0 13 -28 36q-28 33 -28 48zM780 126l4 4l40 -12h4v4h-12v8h48v-4l-36 -36h-20zM796 430q0 40 32 40q16 0 16 8q-40 0 -40 8v4q0 13 100 32v-4l-104 -92zM828 66q25 36 52 36v4h-8v4l20 20h16l8 -8q-13 -12 -24 -12l4 -4v-4q-28 -39 -40 -44h-20z" />
<glyph unicode="A" horiz-adv-x="548" d="M40 6l8 48h4l48 -52l-4 -4h-48zM52 82l64 368l96 -12v4q-35 12 -80 12h-8l-8 8q42 52 64 52v-4l20 4v4l-12 4l-4 -4h-8v4l20 24q37 0 60 -24q-7 -74 -24 -112l8 -8q-3 -44 -12 -44h-8q-18 16 -56 16h-20v-4q64 -11 64 -20l-4 -4v-4l24 -8v-8h76l8 -8v-40h8q0 26 24 36 l8 16q-32 0 -32 12l-20 128h4q156 -147 156 -164l48 -304l-4 -4h-124q-12 0 -40 200h-132q-29 -195 -36 -200h-44l-8 8l24 16v4l-12 12h-8l-24 -8zM120 478v4q0 36 32 36v4l-24 4q0 32 20 52l-8 12q40 272 52 272h168q10 0 28 -124l-108 -104l-8 8l-4 -4v4l-24 -4v-4h28v-8 q-33 -48 -76 -48v-8q12 0 12 -8l-8 -8h-4l-20 4v-8q12 0 12 -8l-64 -64h-4zM228 446l8 -8v52h-8v-44zM236 586l28 24h4v-4q0 -48 -12 -48zM244 274l4 -4v-4l16 4v4h-20zM260 206h12l28 4l-8 8h-8q-24 0 -24 -12zM280 630l104 100h4l16 -100l-4 -4q7 0 16 -56l-20 -4v-4 q28 0 28 -52l4 -28l-92 12v8h16v8l-24 -8v-4h-8l-24 24v4h4l48 -4l12 4v4q-72 5 -72 28zM340 478l4 4q72 -8 72 -16h-4q6 -16 12 -16h4v8h8v-4l-4 -4q8 -9 16 -76h-4l-84 84v4h8v4q-28 0 -28 12zM352 570h16v4h-16v-4zM360 638h28v4h-8v4l-4 -4h-4l-4 4h-4l-4 -4v-4z M368 530l20 -20l4 12l-12 16h-4z" />
<glyph unicode="B" horiz-adv-x="520" d="M40 10v68h4l20 -20q24 31 24 44h8l88 -88v-8l-8 -8h-36q-9 0 -12 52h-4q-2 -52 -12 -52h-60zM40 338v4q0 7 20 12l4 -4v-8l-12 -12h-4zM40 374v172q0 8 20 8l-4 4v4l-4 -4h-4l-8 8v104q0 8 16 8v4q-16 0 -16 8v8q0 8 20 8v4q-20 0 -20 8v136l8 8h120l4 -4h4l-4 -4v-76h8 v72l12 12h76q24 0 24 -12l-16 -44h-8v16h-4q0 -31 -20 -80l4 -12h-48q-8 0 -8 24h-4l-4 -60v-80q0 -8 -20 -8l-4 -4v-4l16 -4l4 4l4 -4v-32q-32 -24 -32 -48l4 4h4q24 -16 48 -16l72 20q34 -76 52 -76v12l-36 60h40l8 8q-3 13 -36 16v4q16 50 20 92h12v4q-24 0 -24 36 l-20 32v12q0 34 36 88l4 12h-4l-28 -44v8q0 36 16 64q63 -25 80 -48l-68 -76h8v-4q12 0 56 28q28 6 28 16h-20l12 12h8q40 -71 40 -144v-24l-4 -4l4 -4v-8l-4 -4v-4l-48 16l-52 -4v-8l64 -12l4 4h4l4 -4l4 4h12l8 -8q0 -59 -80 -120h-4v-4q34 0 44 -52l4 4h4q34 0 52 -148 v-20q0 -158 -124 -216q-32 -20 -108 -20q-11 0 -44 40v4l4 16l-4 16h4q-8 16 -8 44v8l8 8q12 0 12 -52h4q0 44 16 50l52 14q27 -51 52 -68h4l4 16q-32 24 -32 44q10 0 12 16l-12 32q16 60 24 60l4 -4v8q-20 0 -20 72q-19 64 -120 64h-24q0 -17 -16 -24l-8 12l4 24v4h-4 q-3 -20 -12 -20h-12v8h-4q-22 -16 -40 -16l-4 4v48q0 8 12 8v4q-16 0 -16 12v96l-4 -4l-4 -12h-4l4 -4l-12 -152h-24zM96 610q7 -32 12 -32l-4 -20v-72l-4 -4l4 -4v-40h8v96l4 4l-4 4v20q15 10 24 84h4v8q-20 0 -20 36l4 4l-4 4h-8l-8 -36l8 -8q-13 0 -16 -44zM100 142 q1 20 8 20l-4 4l16 44h12l48 -16v-8l-4 -4l4 -4v-4l-8 -24l4 -24l-4 -20l8 -8l-4 -20h8v-16h-4zM116 398q40 38 40 60v8q-40 -44 -40 -68zM172 478h16v4h-16v-4zM176 406h28v8l-28 -4v-4zM228 818h4v36h-4v-36zM248 390h8l8 44h-8l-8 -36v-8zM312 418h20l28 4v4h-20l-28 -4 v-4zM336 674l8 -8h4q56 0 56 16v4l-4 -4h-4l-4 4zM340 314l20 -4q56 9 56 20h-8l-28 -4l-4 4v4l4 12h-4l-12 4l-16 -12v-20h-8v-4zM352 202l8 -8h24v12l-12 4l-20 -4v-4zM364 234q35 -12 80 -12h24l8 8l-36 8h-76v-4zM396 646l8 -8l16 4v8zM432 362h8l4 12h-12v-12z" />
<glyph unicode="C" horiz-adv-x="492" d="M40 166v8l8 8h4l8 -8l-16 -12zM40 214v4q0 8 32 8v4q-32 4 -32 12v12l4 4v4l32 -12h40l8 -8l-56 -56zM40 298v88l4 4v4l28 -4h24l20 4q42 -35 56 -60l-4 -4l4 -20v-20l-16 -16h-4q-49 42 -72 48q-13 -2 -36 -28zM40 450v4l4 4v4l28 -12v-8h-24zM40 482l8 8v4l-8 12v80 q4 12 24 12l4 -4v8h-20l-8 8v68q0 109 116 172l12 -4v-28l8 -8h12l16 16v8l-16 20q0 20 64 20q55 0 88 -28l-112 -108l-12 8q0 -12 -44 -40l4 -4q-2 -36 -8 -36l4 -4v-8l-4 -4l4 -4v-32l-16 -16h-4l-4 20l16 12v4l-36 8l-24 -16l-4 4h-4q0 -11 -20 -20q9 -24 28 -24v-8h-12 l-16 12h-4l16 -20q0 -8 -16 -8l4 -4v-4l-4 -4l-20 4h-4q0 -6 28 -20v-4l-12 -4v-4l8 -8l-8 -16l4 -12l-8 -8h8v-8h-4q-24 4 -24 12zM48 138l104 100h12l8 -8l-4 -4v-4l4 -16l-4 -4l4 -20v-12l-4 -4v-4q12 0 40 -32l20 -4h28q42 0 60 64v116h4q9 0 12 -28l-4 -28 q0 -15 24 -28l8 8l92 -20v-24q0 -8 -12 -8l-20 4q0 -8 -32 -20l-20 -28l8 -8q-12 -12 -12 -28l-8 -8l8 -16l-4 -12q8 0 8 -20h8v-4q-47 -48 -112 -48h-28q-81 0 -128 60l12 4v4h-16v12l8 12q-64 15 -64 56zM176 70h4v16h-4v-16zM268 734v8q85 92 96 92q10 0 36 -32 q0 -8 -12 -8v-8l44 -24q20 -50 20 -80v-76h-8q0 12 -8 12l-24 -8h-16l-4 4l-44 -8l-12 4v-8h-12l-8 8v24l8 8l4 -4l8 8h8l4 -4h4q0 12 16 12l4 4v8l-20 4h-16v-12h8v-8l-20 4l-4 -4l-8 48l20 24l-20 16l-32 -8zM336 734h4l4 4h4l8 -8l4 4v4l-8 8zM364 622h16v4h-16v-4z M368 314v4h20q8 0 8 -12q13 0 28 12h20l8 -8v-12q0 -13 -72 -20h-4zM380 630h16l-4 12h-12l4 -4v-4z" />
<glyph unicode="D" horiz-adv-x="492" d="M40 18v8l4 4l-4 4v96l16 16l-4 4v4q0 12 32 12l-8 20q9 28 28 28v4q-16 0 -16 8v4q12 20 24 20l44 -8l8 12v4q-46 16 -88 20q-4 28 -24 28l-12 24v8h44l24 -4l16 4l4 -4v-4l-4 -16l16 -12l12 8q20 -5 20 -12v-84l-12 -16l12 -16v-36l-128 -128h-4zM40 378v56h8v-24 l120 116h4v-132l-8 -12l8 -24v-20l-12 -12l-4 4l8 28l-12 32h-16q0 -16 -12 -16h-4l4 4v4h-28q0 -12 -32 -12v4l-4 -4h-12zM40 442v8l8 8l4 -4v-4l-8 -8h-4zM40 478v4q0 8 12 8l32 -4v-4l-16 -16h-4q-21 0 -24 12zM40 530v28q0 8 12 8v8q-12 0 -12 8v52q0 8 40 8l-4 4v4 l-4 -4h-12l-8 8l72 76h-24l-56 -52l-4 4v172l8 8h20l-4 -44q11 -36 24 -44l12 16l4 4h4q0 -7 24 -12l24 -84l12 8h4v-44q0 -8 -20 -8v-8q16 0 16 -8v-4h-8l-16 4l-16 -4v-4q44 0 44 -8v-52q0 -8 -20 -8q0 -23 -24 -36h-16q-15 0 -32 20h-4q-14 0 -32 -16h-4zM76 850v12h24 q6 0 20 -52l-12 -8l-16 44l-4 -4h-4zM84 646h48l-12 12l-4 -4h-8l-4 4l-20 -4v-8zM92 2l80 80h4v-4l-76 -76h-8zM92 202q0 -8 12 -8h8v4zM116 6l136 128q54 0 60 40q8 0 8 36q21 20 36 20h8l4 -4q44 7 44 16l-8 8l-4 -4l-20 4h-12v4l56 60h-12l-48 -44v4q39 48 52 48l-16 12 q-24 -4 -24 -12v-4h12v-8h-8v-4l-40 8l-16 -16h-4v8l4 4l-4 4v32q0 7 28 12v4q-26 0 -28 12v168l4 4v4l20 -4h8l12 12l-36 8l-4 -4l-4 4v60l8 8l4 -4h4v4q0 8 -12 8l-4 4v28q0 10 92 96h8q32 -57 32 -128v-28l-20 -16h-60l-40 -12v-4l36 -16h28l4 -4l48 12l4 -4v-116l-8 -8 h-4l-12 4l-76 -12q0 -12 44 -12h24l28 4l4 -4v-204q0 -163 -156 -216q-34 -8 -88 -8h-84zM136 858l4 4h116q84 0 140 -68l-88 -88h-4q-28 17 -28 24l36 72q-5 20 -12 20q-32 -61 -32 -92l-4 -4h-84l-8 8v8l8 8q-4 19 -24 36v8l12 12zM140 602h16v4h-16v-4zM196 102v4l20 20 h4zM200 738l4 -4h12l8 28v8l-8 8q-11 0 -16 -40zM332 498h20v4h-20v-4zM344 250v4l8 8h4zM384 718l16 -12l4 4h4l4 -4h4q0 12 12 12v4l-20 4h-16zM416 170l8 -8h12v8h-20z" />
<glyph unicode="E" horiz-adv-x="452" d="M40 6v16l128 128h8v-16h228l8 -8v-120l-8 -8h-356zM40 142v124l4 4l-4 4v36l8 8l20 -4q0 8 12 8l12 -4q0 16 -20 16l-32 8v352q0 6 52 24q0 10 16 28v16q0 14 -44 20l-24 -8v80l8 8h40q6 0 20 -32h20l12 8l-4 4v12l8 8h172l96 -96v-28l-8 -8h-228v-52l-4 -4v-4l4 -4 l-4 -4l-4 4l-32 -4v-4q40 0 40 -24l-4 -16l4 -20h-4l4 -4v-16l-4 -4l4 -4v-72h164l8 -8v-116l-8 -8h-168l4 -4v-4l-4 -4l4 -4v-40q0 -8 -40 -8v-4q40 0 40 -12v-12l-132 -132h-4zM92 466l20 -8q32 7 32 16q-2 12 -32 12l-20 -4v-16zM124 278h40v4l-12 4l-28 -4v-4zM148 702 h12l4 20l-12 12h-4v-32zM184 70h4v16h-4v-16zM252 786h48v4h-48v-4zM312 454l20 -4l4 4v4h-24v-4zM388 858v4h16l8 -8v-4l-8 -8z" />
<glyph unicode="F" horiz-adv-x="452" d="M40 6v388l8 8h12v-8l-4 -4v-4h8l12 4l8 -16l40 20v20l8 8h8q28 0 28 -20l-4 -28l8 -8v-292l-60 -76h-64zM40 446v228h4l128 -128v-48h36q8 0 8 -12h4v8h4l16 -12l8 8l28 -28l-12 -4q12 -15 12 -28v-4q0 -8 -12 -8l-4 -4v-12q0 -20 16 -20v-4l-12 -12h-64v4l4 4v4 q-8 24 -16 24l-4 -4v8l16 8h12l36 -16v4l-36 32v4l8 12q-16 0 -16 8v4l4 4v4h-4l-16 -4l-8 16l-4 -4h-12l-4 4h-4l-12 -12h-4l-4 4h-4l-4 -28l4 -12l-4 -4h-4q-4 12 -24 12l-20 -8q-40 4 -40 12zM40 746v108l8 8h280v-12l20 4h28v-8l-40 -40h-4v40h-4v-52l-60 -60l-16 -4 h-60l-4 4l-16 -4v-108h-8zM48 254q12 -24 24 -24l-8 -12q12 -14 16 -76q27 -61 52 -76l20 16l-4 20v8l4 4l-4 4l8 96l-36 24l-4 -4h-8l-60 24v-4zM84 574l4 -4v-4l12 4v4h-16zM84 790l12 -16q16 4 16 24v4q0 9 -20 12v-4zM108 250l4 -4v-4q36 10 36 36q0 6 -16 12 q-24 -8 -24 -32v-8zM124 322h20v4h-20v-4zM204 742h4l4 16l-4 4h-4v-20zM284 374v4l4 36l-4 12l4 4h4l56 -60l-4 -4h-52zM288 730v4l120 120h4v-116l-8 -8h-12l-8 8v48q0 8 24 8v4q-24 0 -24 16v4h-4q0 -20 -12 -20v-4q12 0 12 -8v-48l-8 -8h-84zM300 482v8l8 8h8 q7 0 16 -24l4 4h4l8 -8v-16l-8 -8z" />
<glyph unicode="G" horiz-adv-x="496" d="M40 210l4 16l-4 12h4q141 -133 244 -244l-4 -4h-52q-128 0 -184 156q-8 17 -8 64zM40 430v24l8 8q8 0 8 -12l-4 -12l8 -8l-4 -4v-4h4l12 4l8 -12v-4l-16 -16q-24 14 -24 36zM40 514v4l4 4h4l4 -4v-4l-4 -4h-4zM40 546h4l-4 4v8l4 28l-4 36v28q0 164 156 216l56 8 q116 0 180 -116l-4 -4q16 0 24 -56l-132 -132l-4 4v52h8q3 -20 12 -20l32 36v12q0 13 -12 28l4 4v4h-4l-32 -32h-4q-5 67 -36 72v12l4 4v4h-4l-12 -8l-20 4l-28 -4l-12 4l-32 -40l-8 -36v-44l-28 -28h-12q-15 12 -28 12q0 -40 -32 -40l-20 12h-4l16 -20v-4q-12 -9 -12 -28 h-8zM68 390l12 12h4q12 0 12 -16q12 0 12 -12h12v-8l-12 -12h-4zM84 646l8 -8q28 4 28 12l-4 4h-24zM112 342v4l16 16h4q12 -4 12 -24h-4l-4 4h-4l-16 -4zM136 102h8l8 8v4zM152 306v4l8 8h12v-20l-8 -8zM244 370v108l8 8q30 -36 60 -36l4 -4l4 4l4 16q-32 4 -32 12l4 4h4 l4 -4q34 5 48 20h60q0 -12 12 -12l4 -4v-8q0 -8 -24 -12l-4 4h-8v-4q11 0 20 -20q12 0 12 -12h4q0 52 24 52l4 -4v-68l-4 -4l4 -4v-96l-40 4q-24 -4 -24 -12l8 -8h36l12 8h8v-36l-8 -8q-21 16 -44 16h-12q-31 0 -44 -24v-8q30 -32 72 -32l36 16v-16q0 -99 -56 -148 q-92 85 -92 96l12 52h4q55 -40 72 -40l-4 4v12h20q0 8 -40 16l-56 48v16l4 4l-4 4v92h-64zM296 762q0 -8 12 -8l28 8v8l-24 4zM332 142l8 -8h8l4 20v12l-8 8h-12v-32zM336 354h8v-4l12 4v8h-20v-8zM336 566v4l36 36h72v-4l-36 -36h-20l4 20h-4l-12 -4v4l4 4v4l-12 -8l4 -20 h-36zM384 614v4l68 68l4 -4v-60l-8 -8h-64zM384 706h4l4 12h-4l-4 -4v-8z" />
<glyph unicode="H" horiz-adv-x="500" d="M40 6v144h16v4q-16 0 -16 8v28l8 8h72q0 12 -44 12v4l-24 -8h-12v288q0 8 12 8v4q-12 0 -12 8v16l8 12l-8 8l4 4l28 -4h44l24 8q0 24 -60 24v4l-36 -8l-4 4v108q0 8 12 8v4q-12 0 -12 8v88l48 48h4l80 -80v-12q-7 -16 -36 -16v-4q36 -1 36 -12v-8l-8 -8h-4l-16 4l-16 -4 h-8l-12 8q0 -9 -20 -12v-4l20 -4h56l8 -8v-124l-56 -60q24 0 24 -8l-12 -12h4l36 36h4v-20h104v-12l-4 -4l8 -32h8v8l-4 40h40v20l4 4l-4 4v20l4 4l-4 4v16h8l4 -40v-40l-4 -48l20 16h4q0 -26 -20 -64q16 0 16 -8v-36l4 -16l-4 -4v-4l12 -92h4q8 72 16 72q0 -12 12 -12l4 -4 v-24q11 0 40 -20l12 4l4 -4v-4l-4 -4l4 -4v-12h-8v-4q12 0 12 -8v-204l-8 -8h-120l-8 8v184l4 4l-4 4v72q0 8 12 8v4l-12 16v44l4 4l-4 4v4l4 4v4h-48l-16 16v8l4 4v4q-56 22 -100 20q-68 -3 -68 -24q9 -13 72 -28v-356l-8 -8h-116zM40 814v40l8 8h28l8 -8v-8q-8 0 -40 -32 h-4zM60 742l4 -12h8l8 8v20l-4 4v4l32 32v16q0 8 -24 12q-24 -8 -24 -20l4 -28l-4 -4h8zM116 858v4h48l8 -8v-48h-4zM324 606l4 4h4l12 -16v-4l-16 -12zM324 666h4l-4 4v4l4 16l-4 12l4 4v4l-4 24l4 4l-4 4v8l4 4l-4 4v8q3 12 32 12h60l40 4l4 -4v-12l-24 -16v-4l24 -20v-12 h-20l-4 4l-20 -8l12 -32v-4h-4l-68 -4v-4q56 -3 56 -12l-28 -8l8 -12l-28 -24q-40 29 -40 56zM324 842v12l8 8h12l12 -8h12l32 8h52l8 -8v-20l-8 -8l-40 12v4l-20 -4h-8l-24 4l-24 -8h-4zM332 170h16v8h-16v-8zM344 162l12 -4h4v4l-12 4h-4v-4zM360 194h28v4h-28v-4z M376 310v8l4 24l-4 16l16 8q0 12 -12 12v4l8 24q-12 4 -12 24v52l28 28h12q44 0 44 -12v-144l-56 -20l-16 -24h-12zM380 122h24v4h-24v-4zM424 354h20l-8 8h-12v-8zM436 426l4 -4v-4l12 4v4h-16z" />
<glyph unicode="I" horiz-adv-x="212" d="M40 6v32q0 8 12 8v12l-12 60v76l8 8l4 -4l4 4h16l4 -4l92 16l4 -4v-204l-8 -8h-116zM40 286v156l4 4v4l44 -4l40 4v4l-8 8h-20l-36 4l-4 -4h-4l-16 8l4 4l-4 20v24l16 28q-16 0 -16 12v12q0 8 20 8v4q-20 0 -20 8v40l8 8l4 -4q28 10 28 16h-4l-4 -4q-32 4 -32 12v20 q37 52 80 52h8v8l-20 4v4l60 60h4v-108l-4 -24l4 -20v-20l-8 -8h-60l-28 -4l-4 12h-8q0 -16 -12 -16h-4l4 -4v-4l4 4l68 -4h16l28 4l4 -4v-80q0 -8 -32 -8v-4q32 -4 32 -12v-152l-8 -8l-4 4q-40 -7 -40 -20q0 -8 52 -20v-44l-4 -4v-4q-32 0 -32 32q-8 0 -8 -20l-4 -4h-4 l-4 4h-4l-4 -4q-28 3 -28 8l-4 -4h-20zM40 826v16l8 8h20v-4l-24 -24zM104 562h20v4h-20v-4zM116 854v8h52v-8h-52zM136 414l4 -20h8l8 20q-8 0 -8 20q-8 0 -8 -20h-4z" />
<glyph unicode="J" horiz-adv-x="368" d="M40 6q9 92 20 92l4 -4l12 12h12q68 0 96 44q12 19 12 40v76l4 4v4l92 -8l4 4h4l12 -4l12 4v-8l-12 -16v-8l16 -20v-40l-108 -156h-4l-4 4l-48 -32l-52 -4l-8 8h-4l-8 -8q-52 7 -52 16zM196 302v4q24 32 48 32v4l-8 8l28 24h4v-8h4v4l-4 12l56 52h4v-124l-16 -4l-8 8 q0 -8 -40 -12l-4 4l-20 -4h-44zM196 350v28h8v-28h-8zM196 386v88h4l4 -4h4l-4 -28v-4l8 -8q21 0 36 24v4q0 8 -32 8l8 8h8l4 -4l4 4h4l4 -4l4 4h28q0 9 16 16h4v-8l-56 -56q-8 0 -36 -36l-4 -4h-8zM196 650v12l8 8l84 -4l36 4l4 -4v-44l-4 -4v-4l-48 4h-20v4l4 16l-4 12 h-20l-4 4l-28 -12zM196 690v16q0 8 40 8v4q-40 0 -40 8v40l12 12l44 -8v-4q-4 -12 -24 -12v-4q66 0 84 -28v-12h-20v-8q36 -3 36 -12v-4h-4l-112 4l-12 -4zM196 798v20l8 8l16 -16v-8h-8l4 -4v-8h-12zM196 858l4 4h120l8 -8v-132l-8 -8l-40 52q40 10 40 16l-40 8l8 12 q-14 12 -48 12l-16 -4l-4 4v8h48l28 8v12l-48 12h-16l-20 -4v4l-4 -4h-4zM200 98l8 -12q24 8 24 32l-4 4h-16l-12 -12v-12zM264 190l8 -16q28 3 28 28v4l-16 4q-16 0 -16 -20h-4zM280 346q9 0 12 -20h4v4l-12 24h-4v-8z" />
<glyph unicode="K" horiz-adv-x="532" d="M40 30v48h8v4l-8 12v104h8l16 -4l12 4v8h-8v4l-4 -4h-24v52q0 23 68 104h4l-4 4v4q67 108 84 108v-8h8v8h40l4 -4l4 4q68 0 68 -28l8 -16q0 -8 -28 -8v-4q36 0 36 -8q-15 -30 -24 -32h-36l-12 8h-16l-20 -4v-4l12 -20h20l4 -4l4 4l28 -8q-44 -73 -52 -76q-10 0 -28 68 q-8 0 -40 -76h-8l-4 4l-4 -4h-4l-4 4q-16 -6 -16 -12l4 -4l4 4h8l4 -4l4 4h8l8 -8v-72q0 -11 -88 -144h-12v8h-4v-8l8 -8l-24 -32h-8v4l8 12v8q-12 0 -12 8zM40 354v80q0 6 48 16v8q-48 4 -48 16v4l8 8h16l16 -4l4 4q44 -4 44 -12l-80 -120h-8zM40 682v20q0 8 16 8v8 q-16 0 -16 8v100l8 8h12l-4 -20v-8q4 -12 24 -12l16 12l12 -16v-4l-4 -4v-4l16 -8h8v-8h-12v-4q40 0 40 -16l-68 -68h-40zM72 858v4h92l8 -8v-68l-8 -8h-12l-48 48q0 8 44 8l4 4v4q-80 6 -80 16zM84 134l16 -4l8 24l-4 4h-4l-16 -16v-8zM92 110l8 -8h12v8h-8v4zM112 618v4 l56 56h4v-36l-8 -8h-20q0 -16 -8 -16h-24zM176 418q4 -24 48 -24q39 0 64 44q0 18 -48 24q-16 -12 -36 -12zM200 618l24 48h8q12 0 12 -16q-9 -23 -36 -48h-4zM240 690q4 12 24 12l4 -4l4 4l4 -4v-4l-12 -16l-4 -4h-4zM268 598v12l8 8h4l16 -16v-4h-28zM272 754l32 4v4 l-24 8q26 68 72 68l4 4h4l-8 20h28q0 -22 -20 -32v4l-12 -4v-16q0 -19 -52 -84h-8q-7 0 -16 24zM280 170v8q82 127 92 132h4l88 -220l-20 -36l-92 60l-4 -20l84 -56l16 4l4 -16h4q12 0 12 16l4 4h12l8 -24l-16 -24h-4l-20 20q0 -12 -16 -20h-84q-13 0 -72 172zM292 642 q6 16 12 16h8l28 -56l-4 -4h-4q-40 32 -40 44zM316 842q8 18 16 20h12v-4l-20 -20l-4 4h-4zM320 674v12l96 120h20l-80 -172h-8zM420 834q17 28 24 28h8l12 -12q-14 -28 -20 -28h-12z" />
<glyph unicode="L" horiz-adv-x="436" d="M40 6v216l8 12l-8 32v40l56 40l4 16q-4 24 -40 24l-16 -4l-4 4v80l4 4v4l4 -4q49 9 76 24l12 -4l8 8l4 -4v8h8q0 -12 12 -12l4 -4v-288l-4 -108l4 -4h4q8 0 24 48h188l8 -8v-120l-8 -8h-268l-12 8l-8 -8h-52zM40 590v8l4 4v4l28 -4h36l20 4v4h-48l-8 8l4 4v4q0 12 -36 24 v16l4 4l-4 4v124l4 16l-4 16l8 8h24v8h-24l-8 8l8 8h116l8 -8v-132l-8 -8h-48l-16 4l-24 -8v-4h88l8 -8v-64l-4 -48l4 -4l-4 -4l-20 4l-12 -4l-28 4h-60zM60 782l44 -12h12l12 12l-68 8v-8zM76 826l4 -12h4l4 28v16q-8 0 -12 -32zM96 250l8 8v28h-8v-36zM104 390l32 -12l4 4 v12q-32 0 -32 24v16h-4v-44z" />
<glyph unicode="M" horiz-adv-x="684" d="M40 6v468l8 8l16 -4l12 4l4 -4v-4l-32 -32v-12q0 -28 52 -28v-4l68 20l4 -4v-48q0 -8 -24 -8l-4 -20q0 -10 28 -20v-128l-4 -4v-4l-36 12h-32l-20 -12q6 -28 68 -28l24 8v-156l-8 -8h-116zM40 578v140q0 8 32 12v16q-32 4 -32 12v28q0 6 28 20h24v8h-24l-4 4l-4 -4h-4 l-16 4v20h28q0 7 -28 12v4l8 8h108v-4l-4 -4v-4l20 -4l4 16h12q0 -22 15 -25q25 -7 26 -8q15 -11 15 -51l12 -68l-4 -4h-44l-16 -8v-4l48 -4h16q10 0 20 -76l-4 -4l-168 16l4 -4v-4q0 -8 -16 -8q0 -12 84 -12v-4l4 4h16l4 -4l36 8q48 0 48 -28l8 -44l-24 -8v-12l20 -16l8 8 q20 -71 48 -244h4q58 325 68 324q148 -10 148 -20h-64l-88 -4v-8l96 -4l16 4l8 -8q0 9 40 12l-4 4v8q76 0 76 -16v-544l-8 -8h-116l-8 8v236q12 0 12 12l20 4l4 -4h4l12 4v-12q-12 0 -12 -8q0 -11 36 -20l40 16l-8 12l20 8q0 5 -36 16q-10 24 -44 24q-22 0 -44 -12l-4 4v236 h-4q-41 -231 -52 -232q-48 -3 -48 -20q0 -6 40 -32v-4q0 -39 -20 -84l-32 4q-55 0 -76 -28v-4q0 -12 28 -12l8 -8l4 4h4l4 -4l4 4h24q24 0 24 -12q0 -32 -24 -32q-16 0 -16 -8q28 -9 28 -16q-3 -40 -12 -40h-96q-8 0 -80 320l12 24q-23 0 -40 96q10 0 20 28l-4 4l4 4 q-16 0 -16 8h4l-4 4v8h12q8 0 12 -24l4 4h4l4 -4h4q0 8 12 8v8q-17 12 -60 28l-108 40q0 8 -16 8l-4 4v4l-4 -4h-4zM68 762h84v8h-24l-60 -4v-4zM84 670l48 -12v8l4 4l-4 4l-36 4h-4zM84 690h36v4l-28 4h-8v-8zM100 718l40 -4l24 4v4l-28 4h-28zM168 766q4 -16 24 -16 q21 0 24 12q0 9 -36 12q0 -8 -12 -8zM192 790h16v4h-16v-4zM216 662h44v4h-44v-4zM252 322h20v8l-20 -4v-4zM260 450l4 -4h28l8 8l-16 16l-12 -4l-4 4l-8 -12l4 -4zM404 458h4l4 16q-8 0 -8 -12v-4zM412 502h4v16h-4v-16zM412 602l40 220l8 24h20v4q-20 0 -20 8l4 4h172 l8 -8v-164h-8q0 12 -20 12v4l4 20l-8 8v28q-20 0 -20 12l4 12q-48 -36 -48 -76h-4l4 -4l-8 -48l4 -28l-8 -8v-8q16 0 28 -24q21 22 76 24l4 -4v-28l-8 -8l-112 8v12l-4 20h-12v-20l-8 -8q-88 7 -88 16zM456 446h4v16h-4v-16zM476 634h16v4h-16v-4zM564 138l12 -8h4l4 24 l-4 4h-4zM576 826q0 -14 28 -20q24 8 24 16q-20 12 -40 12zM588 498l4 -4v-4l12 4v24l-16 12v-32zM592 74q5 -44 28 -44q16 44 16 64l-12 48h-8q-20 -8 -24 -68zM604 622v8l8 12l-4 4v4q28 10 28 24h8v-48l-8 -8zM608 366h24v4l-12 4l-12 -4v-4z" />
<glyph unicode="N" horiz-adv-x="528" d="M40 8v48q0 7 24 16v4q-24 4 -24 12v644q0 10 176 36q40 -119 40 -140l-8 -24h4l4 4h4l20 -52l-4 -4l8 -8q0 -8 -12 -8l-4 4l-20 -4h-8l-4 4h-4l-8 -8l-24 4h-4v-4q12 0 12 -16q18 -13 92 -24l8 -32q-43 -9 -68 -36h-8q-32 0 -40 64q-6 1 -16 48h-4v-104q0 -15 -48 -20 l-16 4l-12 -4l-4 4q0 -12 -16 -12q0 -14 44 -20l48 8l4 -4v-176q0 -21 -12 -24h-8l-8 8v4l-4 -4h-24v-8l32 -4q-28 -24 -28 -52v-8q9 -24 52 -32v-20q-2 -8 -20 -16v-4q0 -8 16 -8l4 -4v-32l-8 -8h-116zM40 748v108l8 8h136q6 0 32 -88l-172 -32zM52 320h20v4l-16 4l-4 -4 v-4zM52 488h12q40 8 40 20h-8q-44 -6 -44 -16v-4zM108 312q0 -8 20 -8v-4l4 4h24v8l-20 4zM212 632l20 -4l4 4v4l-12 4l-12 -4v-4zM224 384q52 9 52 20l-8 8v4l48 8q12 -18 32 -100q-28 -5 -28 -16v-4l24 -4l28 8q0 8 -12 8l-4 4v68l4 4v4l4 -4h4l28 4l76 -60l-64 -56l-8 8 q-4 -20 -36 -48h-12l-4 4q-48 -9 -48 -28l4 -4l-4 -4q-30 0 -44 80zM240 372q0 -8 12 -8l12 4v4h-24zM256 324l8 -8h20l20 4v4l-28 4zM288 196l4 -4l44 8v-4q-9 -28 -32 -52q-16 25 -16 52zM356 432v76l8 12l-8 12v56l8 8h4l4 -4l12 4v4q-28 0 -28 8v176q0 10 100 20l32 -36 v-220q0 -10 -56 -16q0 -8 -24 -12v-8q0 -10 44 -16l32 4l4 -4v-24q0 -12 -16 -12v-8q16 -2 16 -12v-88l-12 -12q-117 84 -120 92zM356 800v24h12v4l-12 16v12l8 8h28l52 -52v-4l-84 -12zM360 0v4l124 128h4v-80q-16 0 -16 -8v-4l4 4h12v-36l-8 -8h-8q-43 0 -68 28l-12 -12 l4 -12l-4 -4h-32zM360 420l20 -16l-4 -4h-4q-9 0 -12 20zM392 536l20 -4l20 4v8h-8v4l-4 -4h-4l-12 4l-12 -4v-8zM412 860v4h68l8 -8v-12h-8v-8h8v-12l-12 -12h-16zM448 436h36l-8 8l-28 -4v-4zM464 24l16 -8v4l-12 8h-4v-4zM468 804l4 4h8l8 -8v-12h-4z" />
<glyph unicode="O" horiz-adv-x="492" d="M40 164v64l8 8l28 -28l-8 -8v-4h20l8 -8l-24 -8q4 -16 24 -16h16v-8l-36 -28l4 -12l-4 -4h-12v4l4 4l-8 56h-8q0 -12 -8 -12h-4zM40 432v8q12 14 12 60l-4 12l4 4l-12 56v16q0 8 12 8l4 4v4l-4 16l24 4l20 -24v-4h-20v-4q43 0 80 -52l16 -16v-20l-4 -4l4 -4v-4l-12 -12v4 l-56 -24v4l-56 -32h-8zM40 672q21 180 156 180l4 -4v-116l-32 -40l-12 4q-16 -6 -16 -12v-8h4l28 4v-36l-4 -4l4 -4v-52l-4 -4l4 -4v-20l-8 -8q-28 21 -44 48q-12 0 -24 20v4l20 4l4 -4l8 24l-28 8h-40zM60 244l48 40q2 -20 32 -20v-8q12 0 12 -8l4 4h8l8 -8v-16l-8 -8h-52 l-28 -4zM68 100q35 12 68 44h4l144 -144v-8h-44q-95 0 -148 76q0 13 -24 32zM128 176v4l64 -44l4 4h4q21 -12 40 -12h4q72 0 72 92v20q8 0 8 20q28 12 28 20h8l-4 4v4q0 17 16 32q10 0 56 -52v-4h-8l-12 8h-12q-8 -8 -48 -12v-8l56 -8h48v-64q0 -73 -52 -112q0 -12 -8 -12 t-12 24h-4q0 -20 -8 -20t-8 12l-12 -8l-20 4v-8q0 -22 20 -28l8 28q16 -6 16 -12q-35 -48 -72 -48zM128 188v4h8l4 -4l16 8q16 0 16 -20l20 -28v-4h-4zM164 816h20v4l-20 4v-8zM164 852v8l32 8l4 -4v-4zM220 752l4 32l-4 16l4 36v16q0 12 56 12v-8h-28l-4 -60v-44l-8 -8h-12 zM220 872l4 4h8l8 -8l-4 -4h-8zM248 868l8 8h16v-8h-24zM268 104q0 -24 40 -52h8l4 20q0 23 -32 48l-4 -4h-4l-12 8v-20zM296 856v4l8 8q148 -63 148 -184v-8q0 -8 -36 -8v-4q36 0 36 -8v-16q0 -12 -32 -16l4 -4v-8h-8v-4q33 -3 36 -16l-60 -16h-28v-8q16 -1 16 -16l40 -8 l28 4l4 -4v-28q0 -9 -60 -20v12l4 4v4q-8 0 -80 80v24q0 8 32 12q0 10 32 16l-4 4v4q0 11 20 12v4q-25 0 -32 24l-4 -4h-4l-28 8v8l20 -4l-4 12l16 20l-4 12h4l12 -4h4v4q-20 2 -20 44q-12 7 -12 28q-11 0 -24 24q-12 0 -20 12h-4zM316 516v48h8q24 -36 24 -48h-20l-4 -4h-4 zM328 588h16v4h-16v-4zM392 320v4q0 8 20 8l-4 4v4l8 8h4v-20q13 0 28 12h4v-76h-4zM404 436v12q2 8 20 16l24 -8v-8l-28 -28zM436 368l12 16h4v-20l-8 -8zM436 484v12h8l8 -8v-8l-8 -8z" />
<glyph unicode="P" horiz-adv-x="488" d="M40 12v112q15 0 40 -32l-36 -40q12 0 20 -48l-4 -4h-8zM40 148v68q32 23 32 44l-20 16l-4 -4h-4l-4 4v104l8 8h40v-4q0 -8 -16 -8v-8l24 -20l12 4q0 -10 60 -32l8 -40h-4l4 -4v-40l-4 -4l4 -12l-4 -4v-4l4 -4v-4q0 -32 -48 -60l-28 12l-4 -4h-12l-12 8q0 -12 -16 -12 l8 -16l-4 -4h-4zM40 452v76l48 48h4l-16 -72h-12v-4q12 0 20 -16v-4l-4 -4l12 -32v-4h-4q-48 0 -48 12zM40 584v4l12 12h4l8 -8v-4l-12 -12h-4zM40 660v4l20 12h64l8 16q0 9 -36 20l-52 -12l-4 12l4 4l-4 20v68h4q92 -83 92 -100q0 -12 24 -12v-8q-9 -17 -32 -24l-20 4 q-41 0 -64 -8zM40 852v4l8 8h16q8 0 20 -52h-4zM44 312q0 -8 24 -8v-4l4 4h24v8l-20 4zM48 188l4 -20h4v16l-8 8v-4zM68 192h20v16q-20 -5 -20 -12v-4zM80 108v4l24 12h4v-4l-20 -20zM96 240q0 -8 12 -8h8v4zM100 388v4l56 12v4h-16l-4 40h-4v-20l-28 4v4q12 18 12 36h4 l-4 4v4l4 4v4l-4 20l4 12l-12 48l4 4h4l24 -4l32 4l4 -4v-20q0 -8 -20 -8v-4q16 0 16 -12h4l-4 -20l4 -28q-44 -4 -44 -12v-4l28 -4h12l-8 -40l4 -12q0 -17 -40 -20l-12 4l-12 -4zM108 596v4q9 9 60 24l8 -24l-8 -8h-4l-4 4l-4 -4h-4l-16 4l-24 -4zM120 772v4h4l12 -12l4 4 h4l4 -4h4l12 4l20 -4q9 24 16 24h8l4 -4h4v8l-4 20l12 4l4 -4h8v4l-16 4v8l4 4v4q-12 0 -12 8v4l20 16h28q112 -14 112 -44l-4 -4v-8h4v8h4q8 0 8 -16l12 8l4 -12l-4 -12h4l12 4q24 -30 24 -48l-12 -8l-28 4h-4l-20 -4v-8q0 -22 32 -40l40 16l4 -4v-16l-104 -12v4 q16 21 16 36v28l4 4l-4 4v8l4 4v4h-4l-16 -4q-5 20 -12 20q-20 -36 -36 -36v-12l4 -4v-4l-4 -4l-32 12h-84l-12 -8zM124 308l8 -8h16l8 8v4l-20 4h-4zM144 496h16v4h-16v-4zM236 448v4l4 4h24v-8h4q0 10 32 28q0 8 44 8v4l-28 8l4 24h8l32 -28q3 32 12 32l12 -28 q0 -34 -92 -40l-8 -12l8 -8l4 4h4l56 -12l4 -4h12l12 8h32v-4l-80 -84l-20 4l-16 -4q-18 13 -36 84h-4q0 -24 -8 -24l4 -4v-12l-8 -8l-8 8l4 4l-4 20v32zM296 396l20 -4l16 4v4h-36v-4zM328 612v8h36v-8h-8l-4 4l-4 -4h-20zM336 556l4 4l20 -4h12v-4l-16 -16zM404 628v4 l40 12v-4l-24 -28h-12l4 4v4zM408 468q0 11 36 40h4q0 -48 -16 -48z" />
<glyph unicode="Q" horiz-adv-x="516" d="M40 368v8l96 96l16 -4l12 4l-4 28l4 4h4l4 -4v-64l-8 -12l-20 4h-16l8 -8l-4 -4v-12l20 -20q0 -11 -84 -16v4l-24 -8zM40 556v8l8 8l4 -4v-8l-8 -8zM48 148h4l12 -4v4q0 28 24 28l12 -4v4l8 8v4l-8 12v4l4 4l-4 4v4q0 8 12 8l-4 4v4q0 15 36 20q0 24 28 24v-80l4 -28 l-12 -4v-4q44 -10 44 -32l4 4h8q40 -12 40 -24l-4 -20l24 -8v-8q-100 -40 -100 -52v-8h32l8 -8l-4 -4l4 -4l-4 -4q-58 6 -128 72q-40 63 -40 84zM48 584l8 8h4l-8 -8h-4zM52 732q0 50 100 120l32 12v-4q-61 -68 -72 -68v-4l-20 4h-4l12 -16l-44 -44h-4zM56 324l12 8h40 q29 0 64 16v-32q-20 -3 -20 -12v-4q20 0 20 -8v-8h-4l-12 8q-36 -10 -36 -24h-20q-7 0 -20 40q-24 8 -24 16zM64 592l16 4l4 -4v-4l-4 -4h-8zM64 616v8q16 32 68 32v12h8l4 -4l4 4h8v-4l-48 -48h-44zM72 604v8h20v-8h-20zM104 404h4v16h-4v-16zM116 436h12v8h-4zM128 52 l36 -20h8l12 28q-6 40 -28 40q-13 0 -28 -48zM136 200l8 -8l4 32l-4 12l-8 -8v-28zM164 728l16 12h12l8 -8l-16 -16h-8zM264 0q0 36 40 36l64 28l4 -24h8l8 8v8q-12 0 -12 8q0 11 56 28q12 -12 40 -12l4 -4v-76h-20l-4 -4l-12 12h-4q-24 0 -24 -32l-16 -8q-8 0 -60 44 q-40 -20 -68 -20l-4 4v4zM292 120l20 28q-12 0 -12 8q12 0 20 56l-4 4v28l4 4l-4 4v12l4 4l-4 4v16q0 8 12 8l-12 16v32l16 20l20 -4h4l4 12l-4 16l20 16l36 -40q36 5 36 16h8v-112l-4 -4v-4l-60 4h-16q0 12 -16 28l-4 -4h-4l-4 4h-4q0 -8 -12 -8l-4 -12q16 -2 16 -12 l-4 -12l4 -4h4l12 4l44 -4h24v-8h-4l-4 4h-4l-4 -4v-8l12 -4l16 8l-4 12h4l12 4l4 -4v-24q0 -8 -16 -8v-4q16 0 16 -12q0 -64 -40 -64l-40 -20q-5 20 -12 20v-4l4 -20l-48 -20zM312 824v4l8 36l20 -8v-8l-24 -24h-4zM316 360v4l8 8l-4 4v8h8l-8 12v4q12 0 12 8q-16 0 -16 8 t24 8l8 16h4l4 -4l4 4h8l8 -8l-40 -44h4l32 32h4v-8q-4 -14 -44 -36q0 -20 -12 -20zM316 496v4l8 8h4v-12h-12zM316 532v12l4 4l-4 12l4 4v4l-4 12l4 24l-4 4v4q0 20 68 20l16 -16h16q13 24 36 24l4 -4v-16q0 -11 -48 -20l-16 4l-12 -4l-4 4l-12 -16q0 -19 44 -20 q21 -1 44 12l4 -4v-4l-20 -16l4 -16h-24q-85 0 -96 -12zM320 452v16l4 4v4l40 -8v-4q0 -9 -44 -12zM324 552l20 -4l4 4v4l-20 4l-4 -4v-4zM332 196l20 -4h20v4l-4 12h4l44 8l-12 12h-4q-13 0 -28 -12h-4l-16 12h-8zM352 560h16v4h-16v-4zM372 700v8l56 56q28 -37 28 -92 l-8 -8l8 -8v-4l-4 -4v-4l-64 12l8 44h-4l-12 -8zM400 684h20v4h-20v-4zM412 436v4q0 8 24 16q16 -6 16 -12q0 -8 -36 -12zM440 12l16 -8q12 18 12 36h-20z" />
<glyph unicode="R" horiz-adv-x="516" d="M40 2v468h4l16 -12l12 12h4v-4l-8 -20h-8v8h-4l-12 -12q24 0 24 -20q20 0 20 -24l4 4h8l28 -24h4v8h8v-16l-8 -12l8 -8l-4 -4v-4l8 -8v-8l-4 -4v-4q6 0 20 -52l4 -4q0 -12 8 -12v-8h-4l4 -40v-32l-8 -8l-48 12q-48 -7 -48 -32q50 -20 76 -20l24 8l4 -4v-76h-4l-40 8 l-44 -24v-8h-4q3 -11 20 -20h24l32 8l8 -12l-4 -4h-4v4l-4 -4h-4l-4 4l-4 -4h-4l-16 4l-4 -4h-4l-20 4l-16 -4v4l-4 -4h-8l-4 4l-4 -4h-4zM40 690v12h8v-12h-8zM40 790v64l8 8h8l4 -4l4 4h132l4 -28h4q0 28 8 28h60v-8q-26 0 -28 -12v-24q8 -16 20 -16v-8l-36 -36h-4 q-61 28 -76 28h-24q-9 -36 -20 -36l-4 28h-4q0 -36 -8 -36l-4 4l4 4v4q0 33 -48 36zM48 706v4l8 8h4l8 -8l-12 -12zM52 342h36v8h-28zM64 362h20l4 -4l28 8v4l-12 12h-32l-8 -8v-12zM72 234l12 -4h8v4l-16 4h-4v-4zM92 198l16 4v12l-4 4v4l-12 -4v-20zM116 194l8 -8h20v16 h-20zM260 298v12h4l4 -4h4q0 12 28 28h4q8 0 8 -20q10 -12 24 -12l24 32q-12 40 -20 40h-8l-12 -8l-4 4v16l16 32l-8 8l4 4h4l12 -4l80 8v-4q-6 -21 -60 -68q3 -16 32 -40l4 -36l-40 -8q0 -8 12 -8l4 -4v-4l-8 -8l8 -16l16 12h-4l-12 -4v4l8 8h8q32 0 32 -48l-108 -132 l-20 76l48 28l-24 24l8 24v8q0 6 -16 12q-24 -7 -24 -36h-8l-16 72q40 4 40 12h-32l-4 -4h-4zM300 470v4q0 8 40 12v4h-20v4l24 16l20 -4h12q0 12 28 12l8 12q-12 0 -12 8l40 24l4 4l8 -8l-8 -8l8 -8v-4q0 -60 -28 -60l-4 -4q0 -12 12 -12v-8q-60 5 -60 20q32 0 32 12l-4 4 h-36q0 -16 -12 -16q-8 0 -8 -12h-16l-20 -4zM328 22l16 16l-16 16q7 18 24 28h16q8 0 8 -12l4 4h8v-8l20 4h8l4 -4l20 8v-4l4 4h8q12 0 24 -72l-12 -4l-32 12l-20 -12h-12l-4 4l-4 -4h-8l-4 4l-4 -4h-8l-4 4l-4 -4h-8l-4 4l-4 -4h-4q-8 0 -12 24z" />
<glyph unicode="S" horiz-adv-x="512" d="M40 234l4 4h36l20 4v-4l4 4h40l4 4h4l4 -4v-12q-20 -17 -32 -44l-12 -12q-72 0 -72 60zM56 630v48q0 134 136 188l64 8q145 0 200 -136v-12l-4 -4l-48 4h-64q-8 0 -8 12l-20 -8q-21 24 -52 24q-54 0 -68 -76q-12 0 -12 -12l-20 -4l-4 4h-4l-4 -4h-4l-16 8q-28 -7 -28 -16 l8 -8l-8 -12l12 -20l-52 -12v4zM68 122q50 48 80 48q48 -16 64 -36l-4 -28v-28l8 -8q16 23 20 44h32q48 10 48 28q20 14 20 52l4 4q0 8 12 8v8q-17 0 -24 52l-92 108q-4 32 -16 32h-4l-12 -8l-44 44l20 -4h8v44l-12 12h-12q-12 0 -12 -44q-15 8 -48 56l4 4v4l-20 20v4 l68 -12l4 4h28l4 -4l4 4h4q50 -49 132 -72q0 -10 16 -12q124 -128 124 -224v-16q0 -156 -136 -208l-60 -8h-8l-12 12l4 12q-14 20 -24 20q-28 -10 -28 -36h-8q-61 0 -128 108zM176 610v4l8 8h8l8 -8l-4 -4h-20zM208 442h8l-4 -20h4q52 0 52 -8q52 8 52 16v4l-32 4v8h12v8h-4 q-20 0 -20 -16h-24v4l4 4q0 12 -16 12v4l-32 -8v-12zM208 562v4h8l-8 12h4q16 -8 16 -24h-12zM224 530v4h20l40 -36h-8zM292 386q3 -12 32 -12q0 12 16 12l4 4v4l-44 16zM336 414h16v4h-16v-4zM336 670l4 4h48l48 12h24l8 -8q0 -12 -128 -24v4zM336 698v8h16v-8l-12 -4z M352 286q4 -16 24 -16h4q18 16 28 16q0 12 -12 12l-4 4v40l8 12h-44v-4q32 0 32 -8v-32q0 -8 -28 -12zM352 406l8 -8h8v16l-16 -4v-4zM372 114l8 -8h4l-8 8h-4zM412 206h32v4h-32v-4zM432 694v16h24l8 -8l-8 -8h-24z" />
<glyph unicode="T" horiz-adv-x="488" d="M40 738v116l8 8h352q8 0 8 -20l24 -16q16 0 16 -8v-80l-8 -8h-24l-4 4l-4 -4h-100v-52l-4 -4l4 -4v-4l-8 -12l8 -12h-4l4 -4v-8h-24l-100 4l-4 -4l-4 4v48l4 16l-4 16v16h-128zM64 754h20v4l-4 12h-12zM72 822l12 -16q32 14 32 40l-4 4h-8q-22 0 -32 -24v-4zM80 738h16v8 h-16v-8zM176 2v120l8 12l-8 8v92q20 17 20 32v8h-8v8q22 104 36 104l8 -8l-4 -20q16 0 16 -20q12 0 12 -32h4q0 12 8 12l8 -8l-4 -20v-8h4q0 24 28 32h4v-308l-8 -8h-8l-4 4l-4 -4h-8l-4 4l-4 -4h-20l-4 4l-4 -4h-8l-4 4l-4 -4h-16l-4 4l-4 -4h-8l-4 4h-4l-4 -4zM176 338 v188l8 8l12 -12h8l16 12h12l4 -4h4l-56 -192h-8zM176 542v20l12 12h32l28 4l4 -4q-5 -32 -16 -32h-60zM176 602v16l8 8l116 -4l4 -4h4l-4 -4l4 -20v-84q-10 -24 -28 -28l-4 4h-4l-24 -8v4q7 56 24 56l-8 8q8 40 36 64h-8l-4 4l-4 -4l-4 -16h-20v12l-4 -4h-4l4 -4v-8h-16 q-64 0 -64 12zM228 422q10 48 20 48v-8l-12 -40h-8zM236 670h48l-8 8l-40 -4v-4zM260 206l12 8l4 -4v-4l-4 -4h8l8 8l-4 16h-12l-12 -12v-8zM296 770l12 -12h32l4 20l-32 8q-16 -6 -16 -12v-4z" />
<glyph unicode="U" horiz-adv-x="492" d="M40 166v4h4l-4 4v8q0 52 8 72l52 -24v-4l-8 -12l8 -8l-4 -4h12l-4 4v8h4l4 -4h4v8l-4 4v4l4 4h4l16 -8l4 4h20l8 -8v-4l-4 -4l8 -32l-12 -4v-4q20 -1 20 -12v-4h-28v-4q26 0 76 -24h16q1 -36 12 -36q8 33 52 72q3 32 8 32l-4 4v68l4 24l-4 20h4l-4 4v180q4 12 24 12v-8 l-4 -4l4 -4v-8q0 -12 -16 -12v-12l36 -8l16 8l24 -8h16l32 8l8 -8v-76q0 -9 -60 -16l-4 -4l-20 -8l-16 -16v-4q72 -18 72 -24l-36 -36v-4q15 0 20 -16v-8l-236 -236q-128 67 -128 160zM40 286v384q0 8 16 8v4q-16 0 -16 8v20q24 0 24 8v16h-4l-16 -12h-4v76l12 12l-12 20v24 l8 8h112v-4l-112 -116l16 -4l100 100h4v-208q0 -22 -20 -32h-12q-15 12 -28 12q0 -11 -20 -20v-4l4 -4v-4l-4 -4h-12l-16 12h-4l16 -20v-4q0 -8 -16 -8l4 -4v-8q0 -8 -12 -8v-4q12 0 12 -8l-12 -4l4 -20v-4l-4 -4l4 -4v-8l-4 -4v-4l16 -12l-8 -12q8 0 8 -16q26 0 32 -36 q14 0 32 -24q9 0 40 -40v-8l-8 -8l-8 8q-28 -20 -28 -36h-12q-19 16 -32 16l-12 -4l-8 8l-12 -20h-8zM76 118h24v4h-24v-4zM136 98h4l8 8v4l-12 -4v-8zM152 258l12 16l4 -4v-24h-4zM204 -2l112 112q0 -12 24 -12v-20q64 32 64 72q12 22 12 44v16l-80 -76h-12v4l88 88l8 -8 l28 28h4v-64q0 -12 -20 -12v-4q16 0 16 -16q0 -55 -92 -128q-50 -32 -112 -32l-40 4v4zM312 542v4l4 4l-4 4v12l4 4l-4 4v16q0 23 16 36v12h-16v20l4 4l-4 4v4l4 4v4l-4 24v8l4 4l-4 4v136l8 8h124l8 -8l-20 -20l20 8v-324q-20 -16 -40 -16q-30 0 -48 36q-32 3 -32 8l-4 -4 h-16zM316 122v4l4 4h8v-4l-8 -8zM320 206h4q60 54 60 64l-4 4q-23 -16 -40 -16q0 -13 -20 -36v-16zM324 834q20 -27 20 -40v-16l-8 -36l84 84q-36 0 -80 28zM332 342l12 -4l12 4v4l-20 4l-4 -4v-4zM360 674l16 -16q32 0 36 32l-12 32zM368 294h16v4h-16v-4z" />
<glyph unicode="V" horiz-adv-x="568" d="M40 858l4 4h128l8 -8v-8l-4 -4v-4q15 0 32 -156l4 -16q-48 -13 -48 -24v-4l20 -8l20 4v-4l4 4h4l8 -8v-8q-40 -48 -56 -48q-36 -14 -36 -32q0 -23 -20 -32q-8 15 -28 140q11 0 48 32v4q0 28 -60 36l-8 44l4 28q-13 0 -24 68zM88 790l12 -4l-4 -4v-8l32 -4l40 60v4l-20 4 l-8 -8l-12 4zM104 726h8v-4q40 4 40 12v8h-24q-24 0 -24 -12v-4zM120 434q89 92 108 92h4l20 -96l-28 -8v-16q7 -16 16 -16l-36 -40l-64 8l-4 -4q-10 10 -16 80zM136 350h4l64 -12l16 4q0 -14 12 -16t12 -16l12 8h4l8 -8l-4 -4v-4q12 0 20 -92q8 0 24 112l4 4h48v4h-48l-4 4 l12 32q18 -8 52 -8h32v4q-16 0 -16 12h4l4 -4h8v4l-16 4l-8 -8h-28l-28 -4v4l12 16h-4l-12 -12h-4q25 196 48 196l4 4l64 -8h8q0 16 -64 16h-16l-8 8q9 104 32 104l24 24l4 -4h4q0 12 80 92l28 28h4q-52 -308 -60 -316h-4l4 -12q0 -44 -12 -44l4 -4v-12l-100 12q0 -9 28 -12 v-4q-19 -28 -40 -28v-16l32 16l-4 4v4l20 20h4l8 -8q-16 0 -16 -8h4l48 8h4l4 -4h4q-6 -68 -32 -68l-20 -8v-16h24l8 -8v-12l-8 -8l-4 4v4l-12 -4v-8q0 -7 20 -12l-56 -292l-4 -4h-20l-4 4l-4 -4h-8l-4 4l-4 -4h-28l-4 4l-4 -4h-8l-4 4l-4 -4h-24l-4 4l-4 -4h-8l-4 4l-4 -4 h-8l-8 8l20 20h16l4 -4l12 4q0 12 -24 24q-16 -2 -16 -28h-20l-4 -4h-4q-12 27 -20 104l16 24v8q-13 0 -20 48l4 16v8l-16 -12l-8 40l4 4q-12 0 -12 40q-6 0 -8 52zM144 754l8 -8l4 4v12h-12v-8zM188 238h4l28 32h-4zM228 194l4 -4v-4l12 4v16zM240 290h4l12 16h-4zM244 250 h20v4l-4 4v4l-16 -4v-8zM296 222l20 -4h8l20 4v4l-20 4h-20zM320 270l4 -4h16v4l-8 8h-4zM372 290l28 -4l16 4v4l-16 4l-4 -4h-8l-4 4l-12 -4v-4zM388 826q6 36 16 36h84v-8h-20l-4 4h-4l-52 -52zM420 470h4l20 24h-4zM420 654h32l8 8v4h-20l-20 -4v-8zM500 854v8h12v-8h-12 z" />
<glyph unicode="W" horiz-adv-x="748" d="M40 852l4 12h128q10 0 12 -48l-8 -8h12v-16q-20 -28 -32 -28v-28l20 -4h8l4 4h4l16 -68l-20 -12h-4q-15 0 -32 20l-16 4q-29 -5 -44 -20l4 -4v-4l-12 -12h-8l-4 20v12l8 12v4l-8 12l40 44h-4l-40 -40h-4v4q18 64 28 64l-20 60h-8q-8 0 -8 -16l-4 -4h-4zM80 612l4 4 q75 -16 120 -16v8l-28 4v8l32 8h4l28 -200l-4 -4l-40 12v-4q43 -40 84 -40h8q-4 11 -44 32q8 76 16 76l128 -28l4 4h4l32 -4v12q-85 24 -168 24h-4q10 108 28 108q34 -8 88 -8h12l4 -4l24 4v4l-8 8h-8l-92 20v4l8 12q-2 9 -32 20v4q8 70 25 81l75 31v16l-40 8l-40 -8l-4 4 l12 52h128q13 0 32 -180l-20 -8v-4h12l4 4h4q8 -13 16 -92l-84 -36v-4h8q39 8 76 28l20 -120l-4 -12q8 0 8 -24h4q0 28 16 28v8l-12 4q0 49 24 64l-16 4q11 96 24 96l4 -4h4q24 13 24 32v4q-36 4 -36 12q11 112 24 112l20 4l12 -4l24 8q0 23 -44 28h-4l-4 -4h-4l-4 4 q3 52 16 52h128v-4q0 -92 -32 -108l-16 -8v-4q12 0 12 -12q16 0 16 -8q-28 -196 -36 -204l-40 4h-28q7 -10 68 -28v-4l-76 -32v4l-12 -4v-12q76 -16 76 -24q0 -39 -12 -56l-64 8l-60 -8h-40v4l4 4v4q-24 0 -36 20q-52 29 -52 44v24h-4q0 -29 -12 -32l4 -4v-16q0 -28 -16 -28 h-8v-4q0 -8 12 -8l4 -4v-4l-4 -4h-56l-4 4l-4 -4h-164q-8 0 -28 136l20 4v4q-24 0 -24 16l-4 20q32 -3 32 -8q28 7 28 16v12l-8 8h-32l-20 -16h-4v4zM80 628v4h36v-8h-16zM128 340l4 4h224q-18 -180 -28 -180l4 -4l-8 -48l-48 8q0 -6 16 -12l-8 -44l4 -4q0 -35 -44 -60h-56 q-9 0 -16 72l24 4v8q0 7 -28 12l-4 20q0 8 12 8v4q-24 0 -32 116l-4 4v4h4l12 -12l28 20h4l16 -12l16 8l-4 20v24h-8q0 -18 -16 -28l-8 20q-25 -2 -40 -16q-12 0 -16 64zM208 316l76 -16l4 4v8l-68 12l-12 -4v-4zM244 236l44 -8l4 4v4l-4 4h-44v-4zM252 148q4 -28 12 -28 l12 16v8q0 22 -16 28zM260 8l20 16h8v-20l-20 -4zM288 372h8v4l-8 8v-12zM304 8v4l4 12h4v-16h-8zM304 56l4 4h4l-8 44l4 4h8l8 -8l-8 -60h-8zM388 388v12l8 8q0 -8 36 -32h-4q-40 0 -40 12zM392 648h16v4h-16v-4zM396 340l4 4h76l24 -4l20 4l4 -4l4 4h40q0 -16 16 -16 l40 20l4 -4v-4l-12 -72l-28 4v48l-8 -8v-32h-4q-56 48 -88 48h-8l-8 -8q0 -27 108 -84v-4l28 20h8q-27 -180 -36 -184h-12q0 -8 12 -8l4 -4v-4q0 -52 -28 -52h-12l-4 4l-4 -4h-20l-4 4l-4 -4h-20q-8 0 -8 12h-4q0 -12 -8 -12h-12q-1 0 -12 77q-14 110 -40 227zM428 224h4v44 h4l-4 4v52h-4v-100zM440 264l8 -8h20l8 8v4l-20 16q0 -8 -16 -8v-12zM448 516l12 -12q24 2 24 24h-8l-28 -4v-8zM504 104q36 3 36 12v4h-24l-12 -12v-4zM508 32h4v32h-4v-32zM528 488l4 -4h8q0 8 12 8v4h-16zM596 732h4l28 8v8l-16 4zM608 564h20v8h-12zM676 736v8h16v-4 l-4 -4v-4z" />
<glyph unicode="X" horiz-adv-x="560" d="M40 860l4 4h52l-8 -32l4 -20q9 0 16 36l-4 16h76q14 0 52 -136h-132q-16 8 -16 24l16 12l8 -8q25 0 60 28h-8q-20 0 -76 -20q-11 11 -44 96zM100 712l4 4h124v-4q-1 -8 -76 -44v-4h8q22 0 84 32q16 -26 28 -72q-28 -13 -28 -36v-16h4l4 4h4l4 -16h4l40 40l-12 28 q26 88 36 88h32v-8q-16 0 -16 -8v-4l4 4h4l4 -4h4q0 6 16 12v8h28v-8q-12 0 -12 -8h8q24 0 24 16h36v-4q0 -25 -32 -60l4 -16q-15 -44 -24 -44l-8 8v-40q0 -20 -92 -112l-72 -72h-4l4 24v12h-4q-3 -56 -16 -56h-4l-24 8v-8h-8l28 76l-28 80l80 24v16h-4l-76 -24h-4 q-7 0 -76 184zM156 8l40 40v-4q-10 -44 -20 -44h-12zM172 60v8q41 65 64 88v-4q0 -35 -64 -92zM232 168v4q14 28 20 28v-4q-5 -28 -16 -28h-4zM236 420h4v16h-4v-16zM244 468h4v16h-4v-16zM288 264l40 48h12v-28h4v40q8 16 20 16v8l-12 -8l-8 8l28 24h8l16 -60v-4h-8v8h-4 q0 -26 -72 -100v-4h-4q-11 0 -20 52zM308 492l24 -4q24 18 24 36v4h-20q-9 0 -20 -32h-8v-4zM316 184v4l44 48h4v-32h4v44l4 4h8v-20l4 -60q-15 -9 -60 -12zM320 320v4l12 12h4v-4l-12 -12h-4zM328 736q41 117 52 128h132l8 -8q-38 -100 -48 -104q-20 0 -20 -24h-116z M332 136l12 4q136 0 136 -24l40 -112l-4 -4h-28l-4 4l-4 -4h-32l-4 4l-4 -4h-28l-4 4l-4 -4h-16q-13 0 -56 136zM348 368v4l20 20v-4q0 -11 -20 -20zM376 64l12 -4l12 4v4h-24v-4zM388 176l4 4v88l8 20h12l40 -104q-14 -12 -60 -12z" />
<glyph unicode="Y" horiz-adv-x="548" d="M40 832q27 11 32 24h-8v8h40v-4l-4 -4v-4h4l28 4v-4l-72 -72q-9 0 -20 52zM88 700q23 0 120 44l48 -144l-8 -8v-4q12 0 12 -40q17 -48 24 -48l16 -8l24 36l-4 4v4l12 40l-8 24h4l-24 72q0 21 28 88l80 -60v-44l-8 -8l-12 12l-32 -8v4q-24 -5 -24 -12v-4q0 -17 40 -28h4 q21 0 24 12l-4 4l4 4h4l4 -4v-20q0 -34 -80 -248l4 -4v-4l-8 -8h-24q0 50 -72 68h-4q-32 0 -32 -16h-8l-68 208l20 4v8l-24 4l4 4v28h-4l-12 -4q-16 32 -16 52zM136 744l52 52h8l8 -32zM200 8v36l4 4l-4 4v280l8 8l48 -8l60 8h16l4 -28v-52l-4 -4l4 -4v-12l-4 -4l4 -4v-4 l-4 -4l4 -4v-32l-4 -16l4 -16l-4 -16l4 -4l-4 -12l4 -64v-24l-4 -4l4 -4v-20l-8 -8q-16 18 -20 72l4 12h-4q-12 0 -12 12q-24 -11 -24 -44l12 -48l-4 -4h-4v4l-4 -4h-40l-4 4l-4 -4h-16zM216 504h16v8h-4l-12 -4v-4zM336 784l8 8h4l4 -12q44 13 44 24v12q0 8 -36 12l-8 -20 h-8q15 56 24 56h132l4 -4h4q-20 -76 -56 -76l-72 -36q-25 12 -44 36zM400 732v4l8 8l4 -4v-4l-8 -8z" />
<glyph unicode="Z" horiz-adv-x="464" d="M40 28h4l-4 4v16l4 4l-4 4v8l4 4l-4 4v16h8l84 -84l-4 -4h-12l-4 4l-4 -4h-8l-16 4l-16 -4v4l-4 -4h-20zM40 740v8h4l-4 28v60l4 20l-4 4l4 4h40q8 0 8 -24h4q0 24 8 24h60q29 -23 76 -104h8l-12 20q26 10 28 20l-4 4v4l-20 -8l-12 4v-8q-48 51 -48 68h236l8 -8v-116 l-60 -156l-36 8l-8 -20h4l28 -16q-55 -152 -64 -152q-93 64 -104 80v8l20 -4h4v4q0 8 -16 8q0 18 88 232h-136q0 8 -20 16v-16h-76zM44 136q0 16 32 52l-4 24q19 52 28 52l12 4l4 -4h4l16 4h4l8 -8l32 12l4 -4h4l56 16l-60 -152l44 -32v4q-18 20 -28 20v8h36q7 0 12 -28 l32 -8l48 16l-4 12h4q13 -24 96 -56v-60l-8 -8h-24l-4 4l-4 -4h-52l-4 4l-4 -4h-48l-4 4l-4 -4h-44l-4 4l-4 -4h-4l-32 8l-12 -4zM132 360l44 104l52 -40v-4h-20l-12 -8q0 -19 80 -44v-8q-6 -16 -12 -16h-20q-29 0 -32 12l-4 -4l-20 4h-36l-8 8l-4 -4h-8z" />
<glyph unicode="[" horiz-adv-x="300" d="M40 2v92l4 4v4l4 -4h4q48 10 48 16h-52l-8 8v8l4 4v4l40 -8v8h24l4 4h4l4 -4v-4l-4 -4l16 -4l36 36h4v-44q12 0 44 -40l-4 -4h-32v-8h-36v-16h48v4h-16v8h8l4 -4l4 4h20l8 -8l-8 -8l4 -12h-16v-8l20 4h12l20 -4l4 4l4 -4v-24l-8 -8q0 12 -8 12h-24l4 -4v-4l-40 -4h-136z M40 226v16l128 128l4 -4v-112l-8 -8l-40 4l-40 -4v-4h8v-4l4 4l20 -4l16 4v-4l4 4q36 -4 36 -12v-8l-8 -8h-12l-4 4l-4 -4h-4l-4 4h-4l-12 -4l-12 4l-36 -4h-20zM40 270v188q0 12 56 12v8h-48l-8 8v36l32 32v4l-28 -8l-4 4v20q0 8 24 16l12 -4v4l4 4v4l-4 32l-32 -24h-4v296 l8 8h204l8 -8v-20l-8 -12v-20l8 -12v-52l-8 -8h-36v4l4 4v4l-4 4q-22 -16 -44 -16v-340l-8 -8h-20v-8h-36v-4q64 0 64 -12v-8q-84 -93 -128 -128h-4zM44 6h16v4h-16v-4zM72 150v8h12l4 -4l4 4h8v-8h-28zM76 66l24 -4h4v4l-24 8l-4 -4v-4zM88 562h4l76 16l-8 12v32h-4z M96 802q0 -56 48 -56v32q0 33 -36 40h-4l-8 -8v-8zM100 198v4h64l8 -8v-4q0 -7 -28 -24h-4v4l4 4v4q-44 8 -44 20zM104 82l24 -8h4v4l-24 8h-4v-4zM108 26h28v4h-28v-4zM116 146v8h16l-8 -8h-8zM172 10h36v4h-36v-4zM184 122v4h12q8 0 8 -12h8l-4 4v4l4 4h40l8 -8v-40l-8 -8 h-16l-8 8v40h-4l-4 -28h-4zM192 838h4l48 28v4h-8q-36 -17 -44 -32zM224 -6l8 8h4v-8h-12zM224 58l4 4h4l12 -12h-12z" />
<glyph unicode="\" horiz-adv-x="544" d="M40 906v4h100q12 -4 12 -24l-24 -52l40 8q52 -115 52 -140q-19 -19 -72 -44l-4 -16l20 -4l16 4v-4l-12 -52h-4q-2 0 -36 88l-64 168l40 20v8h-4l-20 -4l-4 4l-8 -8h-8q-10 0 -20 44zM168 574l4 4h12v-36h4q18 14 32 44h4l4 -4h4q8 9 8 48l4 4h8l68 -188q-14 0 -32 -32h-8 q-112 113 -112 160zM196 494h4q78 -82 88 -104v-4l-44 -8q-7 0 -48 116zM280 342v4q10 20 32 20l44 -52v-4h-16l-12 12l-4 -4h-4q-8 0 -8 16l-20 -8zM296 394l36 24l8 -20l-12 -8q0 -12 16 -12l32 -68l-4 -4h-4q-61 84 -72 88zM372 42q4 16 16 16v4q-12 0 -12 8l4 4h4l-4 20 l8 20l-8 8l8 12v4l-8 12l40 20v8l-44 20q6 17 20 24l-4 4v8l8 8l104 -268l-4 -4h-68l-4 4l-4 -4h-24l-8 8v4l16 -4h4v4q-16 0 -16 12l4 16q-8 0 -8 -16h-8l-4 28l4 4q-10 0 -12 16zM404 6l32 -20h4v8q0 12 -32 16h-4v-4z" />
<glyph unicode="]" horiz-adv-x="300" d="M40 2v16l4 4l-4 4v4l4 4l-4 4v28l8 8h4l4 -4l12 4v4q-16 0 -16 8h16q0 8 -16 8v8l44 4l-8 8h-40l-8 8l4 4h84v188q37 44 48 44v4h-32l-12 -8l-4 4v68h76v8l-4 -4h-4l-16 4l-4 -4h-4l-20 4l-20 -4l-4 4v236l4 44l-4 32v32h-84v4q88 96 104 96l-4 4v4l-4 -4h-8l-4 4h-4 l-8 -8l-4 16h-4q0 -39 -36 -60l-28 -28l-4 4v96l8 8h36l8 -8l-32 -64h4q10 2 48 64l32 8h12l4 -4l4 4h12l4 -4l4 4h16l4 -4l4 4h12q16 -4 16 -44q-12 0 -12 -16l-12 -16h-8l4 -4v-4l-8 -12l4 -4v-12q0 -12 -20 -12l8 -12l-8 -12q12 0 12 -8l-12 -16q12 0 12 -8l-4 -4v-4 l8 -8v-8l-4 -4v-4q16 0 16 -32l4 4h4l4 -4l-4 -4v-12l12 8q20 -6 20 -24l-4 -4h12l-4 -476l-20 4h-36l-28 -4v-4h8v-4l4 4h52q24 0 24 -12v-20l-8 -12l8 -12v-36h-8v20h-4q0 -46 -16 -48h-36l-12 8h-20l4 -4v-8l-20 -24h4l20 20l20 -4v8l20 -8l8 8q24 0 24 -28h4l4 20h8v-20 l-8 -8l-56 8l-24 -4h-32l-4 4h-4l8 24l-8 20h-32v-4l32 -4l-8 -32l4 -4l-32 -8h-48zM52 22h68v4h-60l-4 4l-4 -4v-4zM76 794h12q21 0 40 20v4h-8l-44 -16v-8zM88 2h16v4h-16v-4zM120 54l44 -4l64 4v8q-12 0 -12 12h-36v-8h-4l-56 -8v-4zM120 86l20 -8h4v4l-20 8h-4v-4z M152 374h8l4 4v4l-12 -4v-4zM164 6h48v4l-20 4l-28 -4v-4zM176 506l12 -44q13 0 20 48l-4 4v4l4 4l-12 52q-20 0 -20 -68zM188 346h4v32h-4v-32zM216 450l4 -36h8l8 8v28l-12 40h-4z" />
<glyph unicode="^" horiz-adv-x="356" d="M40 754q0 33 68 48l8 -16h20l8 -8q-10 -26 -20 -28h-76l-4 4h-4zM64 806v4q9 28 28 28l-4 4v4q23 86 60 140l116 -136v-8q-17 0 -60 -24q-7 0 -24 44h-4q-3 -28 -20 -28l8 -8l-20 -36q-23 20 -40 20l-36 -8zM152 990l4 4h52q8 0 60 -132h-4zM208 802l12 8l20 -4l28 8v-12 h-8l-4 -12l4 -4v-8h-36q-16 8 -16 24zM240 750v8l16 8l8 -8l-8 -8h-16zM276 778v4h12l-4 4v28h4q12 -2 12 -32v-4h-24zM304 750v8h12v-8h-12z" />
<glyph unicode="_" horiz-adv-x="748" d="M40 -68l4 28h132l8 -8l-92 -92h-40q-12 4 -12 24v48zM108 -136l68 68l4 -4l-4 -20q5 -40 16 -40l8 8l-4 4l4 20v8h-4q5 52 16 52h108l8 -8l-96 -92h-124v4zM332 -44l4 4h208l8 -8l-48 -40h-4l-4 4q-24 -8 -72 -8v4l32 36l-28 -4h-44q-52 0 -52 12zM376 -136l8 8l4 -4v-4 l-4 -4h-8v4zM408 -132l8 8l40 -8v-8h-40zM540 -132h16v-8h-16v8zM560 -80l40 40h100l8 -8v-84l-8 -8h-12v4q0 10 16 12v4q-80 28 -144 36v4zM576 -132l80 8l16 -8v-8h-96v8z" />
<glyph unicode="`" horiz-adv-x="272" d="M40 976l4 4h88l4 -4h4l-4 -48v-28l-20 -4h-4l-4 4h-4q0 -12 -8 -12h-4q-20 23 -52 88zM132 884v8q20 0 20 12l-8 8v44q3 24 12 24t48 -124h-4q-21 15 -68 28zM140 796q45 32 56 32h8v-28l-4 -4l4 -12h4l4 20v16h8l12 -36l-4 -4h-76z" />
<glyph unicode="a" horiz-adv-x="548" d="M40 6l8 48h4l48 -52l-4 -4h-48zM52 82l64 368l96 -12v4q-35 12 -80 12h-8l-8 8q42 52 64 52v-4l20 4v4l-12 4l-4 -4h-8v4l20 24q37 0 60 -24q-7 -74 -24 -112l8 -8q-3 -44 -12 -44h-8q-18 16 -56 16h-20v-4q64 -11 64 -20l-4 -4v-4l24 -8v-8h76l8 -8v-40h8q0 26 24 36 l8 16q-32 0 -32 12l-20 128h4q156 -147 156 -164l48 -304l-4 -4h-124q-12 0 -40 200h-132q-29 -195 -36 -200h-44l-8 8l24 16v4l-12 12h-8l-24 -8zM120 478v4q0 36 32 36v4l-24 4q0 32 20 52l-8 12q40 272 52 272h168q10 0 28 -124l-108 -104l-8 8l-4 -4v4l-24 -4v-4h28v-8 q-33 -48 -76 -48v-8q12 0 12 -8l-8 -8h-4l-20 4v-8q12 0 12 -8l-64 -64h-4zM228 446l8 -8v52h-8v-44zM236 586l28 24h4v-4q0 -48 -12 -48zM244 274l4 -4v-4l16 4v4h-20zM260 206h12l28 4l-8 8h-8q-24 0 -24 -12zM280 630l104 100h4l16 -100l-4 -4q7 0 16 -56l-20 -4v-4 q28 0 28 -52l4 -28l-92 12v8h16v8l-24 -8v-4h-8l-24 24v4h4l48 -4l12 4v4q-72 5 -72 28zM340 478l4 4q72 -8 72 -16h-4q6 -16 12 -16h4v8h8v-4l-4 -4q8 -9 16 -76h-4l-84 84v4h8v4q-28 0 -28 12zM352 570h16v4h-16v-4zM360 638h28v4h-8v4l-4 -4h-4l-4 4h-4l-4 -4v-4z M368 530l20 -20l4 12l-12 16h-4z" />
<glyph unicode="b" horiz-adv-x="520" d="M40 10v68h4l20 -20q24 31 24 44h8l88 -88v-8l-8 -8h-36q-9 0 -12 52h-4q-2 -52 -12 -52h-60zM40 338v4q0 7 20 12l4 -4v-8l-12 -12h-4zM40 374v172q0 8 20 8l-4 4v4l-4 -4h-4l-8 8v104q0 8 16 8v4q-16 0 -16 8v8q0 8 20 8v4q-20 0 -20 8v136l8 8h120l4 -4h4l-4 -4v-76h8 v72l12 12h76q24 0 24 -12l-16 -44h-8v16h-4q0 -31 -20 -80l4 -12h-48q-8 0 -8 24h-4l-4 -60v-80q0 -8 -20 -8l-4 -4v-4l16 -4l4 4l4 -4v-32q-32 -24 -32 -48l4 4h4q24 -16 48 -16l72 20q34 -76 52 -76v12l-36 60h40l8 8q-3 13 -36 16v4q16 50 20 92h12v4q-24 0 -24 36 l-20 32v12q0 34 36 88l4 12h-4l-28 -44v8q0 36 16 64q63 -25 80 -48l-68 -76h8v-4q12 0 56 28q28 6 28 16h-20l12 12h8q40 -71 40 -144v-24l-4 -4l4 -4v-8l-4 -4v-4l-48 16l-52 -4v-8l64 -12l4 4h4l4 -4l4 4h12l8 -8q0 -59 -80 -120h-4v-4q34 0 44 -52l4 4h4q34 0 52 -148 v-20q0 -158 -124 -216q-32 -20 -108 -20q-11 0 -44 40v4l4 16l-4 16h4q-8 16 -8 44v8l8 8q12 0 12 -52h4q0 44 16 50l52 14q27 -51 52 -68h4l4 16q-32 24 -32 44q10 0 12 16l-12 32q16 60 24 60l4 -4v8q-20 0 -20 72q-19 64 -120 64h-24q0 -17 -16 -24l-8 12l4 24v4h-4 q-3 -20 -12 -20h-12v8h-4q-22 -16 -40 -16l-4 4v48q0 8 12 8v4q-16 0 -16 12v96l-4 -4l-4 -12h-4l4 -4l-12 -152h-24zM96 610q7 -32 12 -32l-4 -20v-72l-4 -4l4 -4v-40h8v96l4 4l-4 4v20q15 10 24 84h4v8q-20 0 -20 36l4 4l-4 4h-8l-8 -36l8 -8q-13 0 -16 -44zM100 142 q1 20 8 20l-4 4l16 44h12l48 -16v-8l-4 -4l4 -4v-4l-8 -24l4 -24l-4 -20l8 -8l-4 -20h8v-16h-4zM116 398q40 38 40 60v8q-40 -44 -40 -68zM172 478h16v4h-16v-4zM176 406h28v8l-28 -4v-4zM228 818h4v36h-4v-36zM248 390h8l8 44h-8l-8 -36v-8zM312 418h20l28 4v4h-20l-28 -4 v-4zM336 674l8 -8h4q56 0 56 16v4l-4 -4h-4l-4 4zM340 314l20 -4q56 9 56 20h-8l-28 -4l-4 4v4l4 12h-4l-12 4l-16 -12v-20h-8v-4zM352 202l8 -8h24v12l-12 4l-20 -4v-4zM364 234q35 -12 80 -12h24l8 8l-36 8h-76v-4zM396 646l8 -8l16 4v8zM432 362h8l4 12h-12v-12z" />
<glyph unicode="c" horiz-adv-x="492" d="M40 166v8l8 8h4l8 -8l-16 -12zM40 214v4q0 8 32 8v4q-32 4 -32 12v12l4 4v4l32 -12h40l8 -8l-56 -56zM40 298v88l4 4v4l28 -4h24l20 4q42 -35 56 -60l-4 -4l4 -20v-20l-16 -16h-4q-49 42 -72 48q-13 -2 -36 -28zM40 450v4l4 4v4l28 -12v-8h-24zM40 482l8 8v4l-8 12v80 q4 12 24 12l4 -4v8h-20l-8 8v68q0 109 116 172l12 -4v-28l8 -8h12l16 16v8l-16 20q0 20 64 20q55 0 88 -28l-112 -108l-12 8q0 -12 -44 -40l4 -4q-2 -36 -8 -36l4 -4v-8l-4 -4l4 -4v-32l-16 -16h-4l-4 20l16 12v4l-36 8l-24 -16l-4 4h-4q0 -11 -20 -20q9 -24 28 -24v-8h-12 l-16 12h-4l16 -20q0 -8 -16 -8l4 -4v-4l-4 -4l-20 4h-4q0 -6 28 -20v-4l-12 -4v-4l8 -8l-8 -16l4 -12l-8 -8h8v-8h-4q-24 4 -24 12zM48 138l104 100h12l8 -8l-4 -4v-4l4 -16l-4 -4l4 -20v-12l-4 -4v-4q12 0 40 -32l20 -4h28q42 0 60 64v116h4q9 0 12 -28l-4 -28 q0 -15 24 -28l8 8l92 -20v-24q0 -8 -12 -8l-20 4q0 -8 -32 -20l-20 -28l8 -8q-12 -12 -12 -28l-8 -8l8 -16l-4 -12q8 0 8 -20h8v-4q-47 -48 -112 -48h-28q-81 0 -128 60l12 4v4h-16v12l8 12q-64 15 -64 56zM176 70h4v16h-4v-16zM268 734v8q85 92 96 92q10 0 36 -32 q0 -8 -12 -8v-8l44 -24q20 -50 20 -80v-76h-8q0 12 -8 12l-24 -8h-16l-4 4l-44 -8l-12 4v-8h-12l-8 8v24l8 8l4 -4l8 8h8l4 -4h4q0 12 16 12l4 4v8l-20 4h-16v-12h8v-8l-20 4l-4 -4l-8 48l20 24l-20 16l-32 -8zM336 734h4l4 4h4l8 -8l4 4v4l-8 8zM364 622h16v4h-16v-4z M368 314v4h20q8 0 8 -12q13 0 28 12h20l8 -8v-12q0 -13 -72 -20h-4zM380 630h16l-4 12h-12l4 -4v-4z" />
<glyph unicode="d" horiz-adv-x="492" d="M40 18v8l4 4l-4 4v96l16 16l-4 4v4q0 12 32 12l-8 20q9 28 28 28v4q-16 0 -16 8v4q12 20 24 20l44 -8l8 12v4q-46 16 -88 20q-4 28 -24 28l-12 24v8h44l24 -4l16 4l4 -4v-4l-4 -16l16 -12l12 8q20 -5 20 -12v-84l-12 -16l12 -16v-36l-128 -128h-4zM40 378v56h8v-24 l120 116h4v-132l-8 -12l8 -24v-20l-12 -12l-4 4l8 28l-12 32h-16q0 -16 -12 -16h-4l4 4v4h-28q0 -12 -32 -12v4l-4 -4h-12zM40 442v8l8 8l4 -4v-4l-8 -8h-4zM40 478v4q0 8 12 8l32 -4v-4l-16 -16h-4q-21 0 -24 12zM40 530v28q0 8 12 8v8q-12 0 -12 8v52q0 8 40 8l-4 4v4 l-4 -4h-12l-8 8l72 76h-24l-56 -52l-4 4v172l8 8h20l-4 -44q11 -36 24 -44l12 16l4 4h4q0 -7 24 -12l24 -84l12 8h4v-44q0 -8 -20 -8v-8q16 0 16 -8v-4h-8l-16 4l-16 -4v-4q44 0 44 -8v-52q0 -8 -20 -8q0 -23 -24 -36h-16q-15 0 -32 20h-4q-14 0 -32 -16h-4zM76 850v12h24 q6 0 20 -52l-12 -8l-16 44l-4 -4h-4zM84 646h48l-12 12l-4 -4h-8l-4 4l-20 -4v-8zM92 2l80 80h4v-4l-76 -76h-8zM92 202q0 -8 12 -8h8v4zM116 6l136 128q54 0 60 40q8 0 8 36q21 20 36 20h8l4 -4q44 7 44 16l-8 8l-4 -4l-20 4h-12v4l56 60h-12l-48 -44v4q39 48 52 48l-16 12 q-24 -4 -24 -12v-4h12v-8h-8v-4l-40 8l-16 -16h-4v8l4 4l-4 4v32q0 7 28 12v4q-26 0 -28 12v168l4 4v4l20 -4h8l12 12l-36 8l-4 -4l-4 4v60l8 8l4 -4h4v4q0 8 -12 8l-4 4v28q0 10 92 96h8q32 -57 32 -128v-28l-20 -16h-60l-40 -12v-4l36 -16h28l4 -4l48 12l4 -4v-116l-8 -8 h-4l-12 4l-76 -12q0 -12 44 -12h24l28 4l4 -4v-204q0 -163 -156 -216q-34 -8 -88 -8h-84zM136 858l4 4h116q84 0 140 -68l-88 -88h-4q-28 17 -28 24l36 72q-5 20 -12 20q-32 -61 -32 -92l-4 -4h-84l-8 8v8l8 8q-4 19 -24 36v8l12 12zM140 602h16v4h-16v-4zM196 102v4l20 20 h4zM200 738l4 -4h12l8 28v8l-8 8q-11 0 -16 -40zM332 498h20v4h-20v-4zM344 250v4l8 8h4zM384 718l16 -12l4 4h4l4 -4h4q0 12 12 12v4l-20 4h-16zM416 170l8 -8h12v8h-20z" />
<glyph unicode="e" horiz-adv-x="452" d="M40 6v16l128 128h8v-16h228l8 -8v-120l-8 -8h-356zM40 142v124l4 4l-4 4v36l8 8l20 -4q0 8 12 8l12 -4q0 16 -20 16l-32 8v352q0 6 52 24q0 10 16 28v16q0 14 -44 20l-24 -8v80l8 8h40q6 0 20 -32h20l12 8l-4 4v12l8 8h172l96 -96v-28l-8 -8h-228v-52l-4 -4v-4l4 -4 l-4 -4l-4 4l-32 -4v-4q40 0 40 -24l-4 -16l4 -20h-4l4 -4v-16l-4 -4l4 -4v-72h164l8 -8v-116l-8 -8h-168l4 -4v-4l-4 -4l4 -4v-40q0 -8 -40 -8v-4q40 0 40 -12v-12l-132 -132h-4zM92 466l20 -8q32 7 32 16q-2 12 -32 12l-20 -4v-16zM124 278h40v4l-12 4l-28 -4v-4zM148 702 h12l4 20l-12 12h-4v-32zM184 70h4v16h-4v-16zM252 786h48v4h-48v-4zM312 454l20 -4l4 4v4h-24v-4zM388 858v4h16l8 -8v-4l-8 -8z" />
<glyph unicode="f" horiz-adv-x="452" d="M40 6v388l8 8h12v-8l-4 -4v-4h8l12 4l8 -16l40 20v20l8 8h8q28 0 28 -20l-4 -28l8 -8v-292l-60 -76h-64zM40 446v228h4l128 -128v-48h36q8 0 8 -12h4v8h4l16 -12l8 8l28 -28l-12 -4q12 -15 12 -28v-4q0 -8 -12 -8l-4 -4v-12q0 -20 16 -20v-4l-12 -12h-64v4l4 4v4 q-8 24 -16 24l-4 -4v8l16 8h12l36 -16v4l-36 32v4l8 12q-16 0 -16 8v4l4 4v4h-4l-16 -4l-8 16l-4 -4h-12l-4 4h-4l-12 -12h-4l-4 4h-4l-4 -28l4 -12l-4 -4h-4q-4 12 -24 12l-20 -8q-40 4 -40 12zM40 746v108l8 8h280v-12l20 4h28v-8l-40 -40h-4v40h-4v-52l-60 -60l-16 -4 h-60l-4 4l-16 -4v-108h-8zM48 254q12 -24 24 -24l-8 -12q12 -14 16 -76q27 -61 52 -76l20 16l-4 20v8l4 4l-4 4l8 96l-36 24l-4 -4h-8l-60 24v-4zM84 574l4 -4v-4l12 4v4h-16zM84 790l12 -16q16 4 16 24v4q0 9 -20 12v-4zM108 250l4 -4v-4q36 10 36 36q0 6 -16 12 q-24 -8 -24 -32v-8zM124 322h20v4h-20v-4zM204 742h4l4 16l-4 4h-4v-20zM284 374v4l4 36l-4 12l4 4h4l56 -60l-4 -4h-52zM288 730v4l120 120h4v-116l-8 -8h-12l-8 8v48q0 8 24 8v4q-24 0 -24 16v4h-4q0 -20 -12 -20v-4q12 0 12 -8v-48l-8 -8h-84zM300 482v8l8 8h8 q7 0 16 -24l4 4h4l8 -8v-16l-8 -8z" />
<glyph unicode="g" horiz-adv-x="496" d="M40 210l4 16l-4 12h4q141 -133 244 -244l-4 -4h-52q-128 0 -184 156q-8 17 -8 64zM40 430v24l8 8q8 0 8 -12l-4 -12l8 -8l-4 -4v-4h4l12 4l8 -12v-4l-16 -16q-24 14 -24 36zM40 514v4l4 4h4l4 -4v-4l-4 -4h-4zM40 546h4l-4 4v8l4 28l-4 36v28q0 164 156 216l56 8 q116 0 180 -116l-4 -4q16 0 24 -56l-132 -132l-4 4v52h8q3 -20 12 -20l32 36v12q0 13 -12 28l4 4v4h-4l-32 -32h-4q-5 67 -36 72v12l4 4v4h-4l-12 -8l-20 4l-28 -4l-12 4l-32 -40l-8 -36v-44l-28 -28h-12q-15 12 -28 12q0 -40 -32 -40l-20 12h-4l16 -20v-4q-12 -9 -12 -28 h-8zM68 390l12 12h4q12 0 12 -16q12 0 12 -12h12v-8l-12 -12h-4zM84 646l8 -8q28 4 28 12l-4 4h-24zM112 342v4l16 16h4q12 -4 12 -24h-4l-4 4h-4l-16 -4zM136 102h8l8 8v4zM152 306v4l8 8h12v-20l-8 -8zM244 370v108l8 8q30 -36 60 -36l4 -4l4 4l4 16q-32 4 -32 12l4 4h4 l4 -4q34 5 48 20h60q0 -12 12 -12l4 -4v-8q0 -8 -24 -12l-4 4h-8v-4q11 0 20 -20q12 0 12 -12h4q0 52 24 52l4 -4v-68l-4 -4l4 -4v-96l-40 4q-24 -4 -24 -12l8 -8h36l12 8h8v-36l-8 -8q-21 16 -44 16h-12q-31 0 -44 -24v-8q30 -32 72 -32l36 16v-16q0 -99 -56 -148 q-92 85 -92 96l12 52h4q55 -40 72 -40l-4 4v12h20q0 8 -40 16l-56 48v16l4 4l-4 4v92h-64zM296 762q0 -8 12 -8l28 8v8l-24 4zM332 142l8 -8h8l4 20v12l-8 8h-12v-32zM336 354h8v-4l12 4v8h-20v-8zM336 566v4l36 36h72v-4l-36 -36h-20l4 20h-4l-12 -4v4l4 4v4l-12 -8l4 -20 h-36zM384 614v4l68 68l4 -4v-60l-8 -8h-64zM384 706h4l4 12h-4l-4 -4v-8z" />
<glyph unicode="h" horiz-adv-x="500" d="M40 6v144h16v4q-16 0 -16 8v28l8 8h72q0 12 -44 12v4l-24 -8h-12v288q0 8 12 8v4q-12 0 -12 8v16l8 12l-8 8l4 4l28 -4h44l24 8q0 24 -60 24v4l-36 -8l-4 4v108q0 8 12 8v4q-12 0 -12 8v88l48 48h4l80 -80v-12q-7 -16 -36 -16v-4q36 -1 36 -12v-8l-8 -8h-4l-16 4l-16 -4 h-8l-12 8q0 -9 -20 -12v-4l20 -4h56l8 -8v-124l-56 -60q24 0 24 -8l-12 -12h4l36 36h4v-20h104v-12l-4 -4l8 -32h8v8l-4 40h40v20l4 4l-4 4v20l4 4l-4 4v16h8l4 -40v-40l-4 -48l20 16h4q0 -26 -20 -64q16 0 16 -8v-36l4 -16l-4 -4v-4l12 -92h4q8 72 16 72q0 -12 12 -12l4 -4 v-24q11 0 40 -20l12 4l4 -4v-4l-4 -4l4 -4v-12h-8v-4q12 0 12 -8v-204l-8 -8h-120l-8 8v184l4 4l-4 4v72q0 8 12 8v4l-12 16v44l4 4l-4 4v4l4 4v4h-48l-16 16v8l4 4v4q-56 22 -100 20q-68 -3 -68 -24q9 -13 72 -28v-356l-8 -8h-116zM40 814v40l8 8h28l8 -8v-8q-8 0 -40 -32 h-4zM60 742l4 -12h8l8 8v20l-4 4v4l32 32v16q0 8 -24 12q-24 -8 -24 -20l4 -28l-4 -4h8zM116 858v4h48l8 -8v-48h-4zM324 606l4 4h4l12 -16v-4l-16 -12zM324 666h4l-4 4v4l4 16l-4 12l4 4v4l-4 24l4 4l-4 4v8l4 4l-4 4v8q3 12 32 12h60l40 4l4 -4v-12l-24 -16v-4l24 -20v-12 h-20l-4 4l-20 -8l12 -32v-4h-4l-68 -4v-4q56 -3 56 -12l-28 -8l8 -12l-28 -24q-40 29 -40 56zM324 842v12l8 8h12l12 -8h12l32 8h52l8 -8v-20l-8 -8l-40 12v4l-20 -4h-8l-24 4l-24 -8h-4zM332 170h16v8h-16v-8zM344 162l12 -4h4v4l-12 4h-4v-4zM360 194h28v4h-28v-4z M376 310v8l4 24l-4 16l16 8q0 12 -12 12v4l8 24q-12 4 -12 24v52l28 28h12q44 0 44 -12v-144l-56 -20l-16 -24h-12zM380 122h24v4h-24v-4zM424 354h20l-8 8h-12v-8zM436 426l4 -4v-4l12 4v4h-16z" />
<glyph unicode="i" horiz-adv-x="212" d="M40 6v32q0 8 12 8v12l-12 60v76l8 8l4 -4l4 4h16l4 -4l92 16l4 -4v-204l-8 -8h-116zM40 286v156l4 4v4l44 -4l40 4v4l-8 8h-20l-36 4l-4 -4h-4l-16 8l4 4l-4 20v24l16 28q-16 0 -16 12v12q0 8 20 8v4q-20 0 -20 8v40l8 8l4 -4q28 10 28 16h-4l-4 -4q-32 4 -32 12v20 q37 52 80 52h8v8l-20 4v4l60 60h4v-108l-4 -24l4 -20v-20l-8 -8h-60l-28 -4l-4 12h-8q0 -16 -12 -16h-4l4 -4v-4l4 4l68 -4h16l28 4l4 -4v-80q0 -8 -32 -8v-4q32 -4 32 -12v-152l-8 -8l-4 4q-40 -7 -40 -20q0 -8 52 -20v-44l-4 -4v-4q-32 0 -32 32q-8 0 -8 -20l-4 -4h-4 l-4 4h-4l-4 -4q-28 3 -28 8l-4 -4h-20zM40 826v16l8 8h20v-4l-24 -24zM104 562h20v4h-20v-4zM116 854v8h52v-8h-52zM136 414l4 -20h8l8 20q-8 0 -8 20q-8 0 -8 -20h-4z" />
<glyph unicode="j" horiz-adv-x="368" d="M40 6q9 92 20 92l4 -4l12 12h12q68 0 96 44q12 19 12 40v76l4 4v4l92 -8l4 4h4l12 -4l12 4v-8l-12 -16v-8l16 -20v-40l-108 -156h-4l-4 4l-48 -32l-52 -4l-8 8h-4l-8 -8q-52 7 -52 16zM196 302v4q24 32 48 32v4l-8 8l28 24h4v-8h4v4l-4 12l56 52h4v-124l-16 -4l-8 8 q0 -8 -40 -12l-4 4l-20 -4h-44zM196 350v28h8v-28h-8zM196 386v88h4l4 -4h4l-4 -28v-4l8 -8q21 0 36 24v4q0 8 -32 8l8 8h8l4 -4l4 4h4l4 -4l4 4h28q0 9 16 16h4v-8l-56 -56q-8 0 -36 -36l-4 -4h-8zM196 650v12l8 8l84 -4l36 4l4 -4v-44l-4 -4v-4l-48 4h-20v4l4 16l-4 12 h-20l-4 4l-28 -12zM196 690v16q0 8 40 8v4q-40 0 -40 8v40l12 12l44 -8v-4q-4 -12 -24 -12v-4q66 0 84 -28v-12h-20v-8q36 -3 36 -12v-4h-4l-112 4l-12 -4zM196 798v20l8 8l16 -16v-8h-8l4 -4v-8h-12zM196 858l4 4h120l8 -8v-132l-8 -8l-40 52q40 10 40 16l-40 8l8 12 q-14 12 -48 12l-16 -4l-4 4v8h48l28 8v12l-48 12h-16l-20 -4v4l-4 -4h-4zM200 98l8 -12q24 8 24 32l-4 4h-16l-12 -12v-12zM264 190l8 -16q28 3 28 28v4l-16 4q-16 0 -16 -20h-4zM280 346q9 0 12 -20h4v4l-12 24h-4v-8z" />
<glyph unicode="k" horiz-adv-x="532" d="M40 30v48h8v4l-8 12v104h8l16 -4l12 4v8h-8v4l-4 -4h-24v52q0 23 68 104h4l-4 4v4q67 108 84 108v-8h8v8h40l4 -4l4 4q68 0 68 -28l8 -16q0 -8 -28 -8v-4q36 0 36 -8q-15 -30 -24 -32h-36l-12 8h-16l-20 -4v-4l12 -20h20l4 -4l4 4l28 -8q-44 -73 -52 -76q-10 0 -28 68 q-8 0 -40 -76h-8l-4 4l-4 -4h-4l-4 4q-16 -6 -16 -12l4 -4l4 4h8l4 -4l4 4h8l8 -8v-72q0 -11 -88 -144h-12v8h-4v-8l8 -8l-24 -32h-8v4l8 12v8q-12 0 -12 8zM40 354v80q0 6 48 16v8q-48 4 -48 16v4l8 8h16l16 -4l4 4q44 -4 44 -12l-80 -120h-8zM40 682v20q0 8 16 8v8 q-16 0 -16 8v100l8 8h12l-4 -20v-8q4 -12 24 -12l16 12l12 -16v-4l-4 -4v-4l16 -8h8v-8h-12v-4q40 0 40 -16l-68 -68h-40zM72 858v4h92l8 -8v-68l-8 -8h-12l-48 48q0 8 44 8l4 4v4q-80 6 -80 16zM84 134l16 -4l8 24l-4 4h-4l-16 -16v-8zM92 110l8 -8h12v8h-8v4zM112 618v4 l56 56h4v-36l-8 -8h-20q0 -16 -8 -16h-24zM176 418q4 -24 48 -24q39 0 64 44q0 18 -48 24q-16 -12 -36 -12zM200 618l24 48h8q12 0 12 -16q-9 -23 -36 -48h-4zM240 690q4 12 24 12l4 -4l4 4l4 -4v-4l-12 -16l-4 -4h-4zM268 598v12l8 8h4l16 -16v-4h-28zM272 754l32 4v4 l-24 8q26 68 72 68l4 4h4l-8 20h28q0 -22 -20 -32v4l-12 -4v-16q0 -19 -52 -84h-8q-7 0 -16 24zM280 170v8q82 127 92 132h4l88 -220l-20 -36l-92 60l-4 -20l84 -56l16 4l4 -16h4q12 0 12 16l4 4h12l8 -24l-16 -24h-4l-20 20q0 -12 -16 -20h-84q-13 0 -72 172zM292 642 q6 16 12 16h8l28 -56l-4 -4h-4q-40 32 -40 44zM316 842q8 18 16 20h12v-4l-20 -20l-4 4h-4zM320 674v12l96 120h20l-80 -172h-8zM420 834q17 28 24 28h8l12 -12q-14 -28 -20 -28h-12z" />
<glyph unicode="l" horiz-adv-x="436" d="M40 6v216l8 12l-8 32v40l56 40l4 16q-4 24 -40 24l-16 -4l-4 4v80l4 4v4l4 -4q49 9 76 24l12 -4l8 8l4 -4v8h8q0 -12 12 -12l4 -4v-288l-4 -108l4 -4h4q8 0 24 48h188l8 -8v-120l-8 -8h-268l-12 8l-8 -8h-52zM40 590v8l4 4v4l28 -4h36l20 4v4h-48l-8 8l4 4v4q0 12 -36 24 v16l4 4l-4 4v124l4 16l-4 16l8 8h24v8h-24l-8 8l8 8h116l8 -8v-132l-8 -8h-48l-16 4l-24 -8v-4h88l8 -8v-64l-4 -48l4 -4l-4 -4l-20 4l-12 -4l-28 4h-60zM60 782l44 -12h12l12 12l-68 8v-8zM76 826l4 -12h4l4 28v16q-8 0 -12 -32zM96 250l8 8v28h-8v-36zM104 390l32 -12l4 4 v12q-32 0 -32 24v16h-4v-44z" />
<glyph unicode="m" horiz-adv-x="684" d="M40 6v468l8 8l16 -4l12 4l4 -4v-4l-32 -32v-12q0 -28 52 -28v-4l68 20l4 -4v-48q0 -8 -24 -8l-4 -20q0 -10 28 -20v-128l-4 -4v-4l-36 12h-32l-20 -12q6 -28 68 -28l24 8v-156l-8 -8h-116zM40 578v140q0 8 32 12v16q-32 4 -32 12v28q0 6 28 20h24v8h-24l-4 4l-4 -4h-4 l-16 4v20h28q0 7 -28 12v4l8 8h108v-4l-4 -4v-4l20 -4l4 16h12q0 -22 15 -25q25 -7 26 -8q15 -11 15 -51l12 -68l-4 -4h-44l-16 -8v-4l48 -4h16q10 0 20 -76l-4 -4l-168 16l4 -4v-4q0 -8 -16 -8q0 -12 84 -12v-4l4 4h16l4 -4l36 8q48 0 48 -28l8 -44l-24 -8v-12l20 -16l8 8 q20 -71 48 -244h4q58 325 68 324q148 -10 148 -20h-64l-88 -4v-8l96 -4l16 4l8 -8q0 9 40 12l-4 4v8q76 0 76 -16v-544l-8 -8h-116l-8 8v236q12 0 12 12l20 4l4 -4h4l12 4v-12q-12 0 -12 -8q0 -11 36 -20l40 16l-8 12l20 8q0 5 -36 16q-10 24 -44 24q-22 0 -44 -12l-4 4v236 h-4q-41 -231 -52 -232q-48 -3 -48 -20q0 -6 40 -32v-4q0 -39 -20 -84l-32 4q-55 0 -76 -28v-4q0 -12 28 -12l8 -8l4 4h4l4 -4l4 4h24q24 0 24 -12q0 -32 -24 -32q-16 0 -16 -8q28 -9 28 -16q-3 -40 -12 -40h-96q-8 0 -80 320l12 24q-23 0 -40 96q10 0 20 28l-4 4l4 4 q-16 0 -16 8h4l-4 4v8h12q8 0 12 -24l4 4h4l4 -4h4q0 8 12 8v8q-17 12 -60 28l-108 40q0 8 -16 8l-4 4v4l-4 -4h-4zM68 762h84v8h-24l-60 -4v-4zM84 670l48 -12v8l4 4l-4 4l-36 4h-4zM84 690h36v4l-28 4h-8v-8zM100 718l40 -4l24 4v4l-28 4h-28zM168 766q4 -16 24 -16 q21 0 24 12q0 9 -36 12q0 -8 -12 -8zM192 790h16v4h-16v-4zM216 662h44v4h-44v-4zM252 322h20v8l-20 -4v-4zM260 450l4 -4h28l8 8l-16 16l-12 -4l-4 4l-8 -12l4 -4zM404 458h4l4 16q-8 0 -8 -12v-4zM412 502h4v16h-4v-16zM412 602l40 220l8 24h20v4q-20 0 -20 8l4 4h172 l8 -8v-164h-8q0 12 -20 12v4l4 20l-8 8v28q-20 0 -20 12l4 12q-48 -36 -48 -76h-4l4 -4l-8 -48l4 -28l-8 -8v-8q16 0 28 -24q21 22 76 24l4 -4v-28l-8 -8l-112 8v12l-4 20h-12v-20l-8 -8q-88 7 -88 16zM456 446h4v16h-4v-16zM476 634h16v4h-16v-4zM564 138l12 -8h4l4 24 l-4 4h-4zM576 826q0 -14 28 -20q24 8 24 16q-20 12 -40 12zM588 498l4 -4v-4l12 4v24l-16 12v-32zM592 74q5 -44 28 -44q16 44 16 64l-12 48h-8q-20 -8 -24 -68zM604 622v8l8 12l-4 4v4q28 10 28 24h8v-48l-8 -8zM608 366h24v4l-12 4l-12 -4v-4z" />
<glyph unicode="n" horiz-adv-x="528" d="M40 8v48q0 7 24 16v4q-24 4 -24 12v644q0 10 176 36q40 -119 40 -140l-8 -24h4l4 4h4l20 -52l-4 -4l8 -8q0 -8 -12 -8l-4 4l-20 -4h-8l-4 4h-4l-8 -8l-24 4h-4v-4q12 0 12 -16q18 -13 92 -24l8 -32q-43 -9 -68 -36h-8q-32 0 -40 64q-6 1 -16 48h-4v-104q0 -15 -48 -20 l-16 4l-12 -4l-4 4q0 -12 -16 -12q0 -14 44 -20l48 8l4 -4v-176q0 -21 -12 -24h-8l-8 8v4l-4 -4h-24v-8l32 -4q-28 -24 -28 -52v-8q9 -24 52 -32v-20q-2 -8 -20 -16v-4q0 -8 16 -8l4 -4v-32l-8 -8h-116zM40 748v108l8 8h136q6 0 32 -88l-172 -32zM52 320h20v4l-16 4l-4 -4 v-4zM52 488h12q40 8 40 20h-8q-44 -6 -44 -16v-4zM108 312q0 -8 20 -8v-4l4 4h24v8l-20 4zM212 632l20 -4l4 4v4l-12 4l-12 -4v-4zM224 384q52 9 52 20l-8 8v4l48 8q12 -18 32 -100q-28 -5 -28 -16v-4l24 -4l28 8q0 8 -12 8l-4 4v68l4 4v4l4 -4h4l28 4l76 -60l-64 -56l-8 8 q-4 -20 -36 -48h-12l-4 4q-48 -9 -48 -28l4 -4l-4 -4q-30 0 -44 80zM240 372q0 -8 12 -8l12 4v4h-24zM256 324l8 -8h20l20 4v4l-28 4zM288 196l4 -4l44 8v-4q-9 -28 -32 -52q-16 25 -16 52zM356 432v76l8 12l-8 12v56l8 8h4l4 -4l12 4v4q-28 0 -28 8v176q0 10 100 20l32 -36 v-220q0 -10 -56 -16q0 -8 -24 -12v-8q0 -10 44 -16l32 4l4 -4v-24q0 -12 -16 -12v-8q16 -2 16 -12v-88l-12 -12q-117 84 -120 92zM356 800v24h12v4l-12 16v12l8 8h28l52 -52v-4l-84 -12zM360 0v4l124 128h4v-80q-16 0 -16 -8v-4l4 4h12v-36l-8 -8h-8q-43 0 -68 28l-12 -12 l4 -12l-4 -4h-32zM360 420l20 -16l-4 -4h-4q-9 0 -12 20zM392 536l20 -4l20 4v8h-8v4l-4 -4h-4l-12 4l-12 -4v-8zM412 860v4h68l8 -8v-12h-8v-8h8v-12l-12 -12h-16zM448 436h36l-8 8l-28 -4v-4zM464 24l16 -8v4l-12 8h-4v-4zM468 804l4 4h8l8 -8v-12h-4z" />
<glyph unicode="o" horiz-adv-x="492" d="M40 164v64l8 8l28 -28l-8 -8v-4h20l8 -8l-24 -8q4 -16 24 -16h16v-8l-36 -28l4 -12l-4 -4h-12v4l4 4l-8 56h-8q0 -12 -8 -12h-4zM40 432v8q12 14 12 60l-4 12l4 4l-12 56v16q0 8 12 8l4 4v4l-4 16l24 4l20 -24v-4h-20v-4q43 0 80 -52l16 -16v-20l-4 -4l4 -4v-4l-12 -12v4 l-56 -24v4l-56 -32h-8zM40 672q21 180 156 180l4 -4v-116l-32 -40l-12 4q-16 -6 -16 -12v-8h4l28 4v-36l-4 -4l4 -4v-52l-4 -4l4 -4v-20l-8 -8q-28 21 -44 48q-12 0 -24 20v4l20 4l4 -4l8 24l-28 8h-40zM60 244l48 40q2 -20 32 -20v-8q12 0 12 -8l4 4h8l8 -8v-16l-8 -8h-52 l-28 -4zM68 100q35 12 68 44h4l144 -144v-8h-44q-95 0 -148 76q0 13 -24 32zM128 176v4l64 -44l4 4h4q21 -12 40 -12h4q72 0 72 92v20q8 0 8 20q28 12 28 20h8l-4 4v4q0 17 16 32q10 0 56 -52v-4h-8l-12 8h-12q-8 -8 -48 -12v-8l56 -8h48v-64q0 -73 -52 -112q0 -12 -8 -12 t-12 24h-4q0 -20 -8 -20t-8 12l-12 -8l-20 4v-8q0 -22 20 -28l8 28q16 -6 16 -12q-35 -48 -72 -48zM128 188v4h8l4 -4l16 8q16 0 16 -20l20 -28v-4h-4zM164 816h20v4l-20 4v-8zM164 852v8l32 8l4 -4v-4zM220 752l4 32l-4 16l4 36v16q0 12 56 12v-8h-28l-4 -60v-44l-8 -8h-12 zM220 872l4 4h8l8 -8l-4 -4h-8zM248 868l8 8h16v-8h-24zM268 104q0 -24 40 -52h8l4 20q0 23 -32 48l-4 -4h-4l-12 8v-20zM296 856v4l8 8q148 -63 148 -184v-8q0 -8 -36 -8v-4q36 0 36 -8v-16q0 -12 -32 -16l4 -4v-8h-8v-4q33 -3 36 -16l-60 -16h-28v-8q16 -1 16 -16l40 -8 l28 4l4 -4v-28q0 -9 -60 -20v12l4 4v4q-8 0 -80 80v24q0 8 32 12q0 10 32 16l-4 4v4q0 11 20 12v4q-25 0 -32 24l-4 -4h-4l-28 8v8l20 -4l-4 12l16 20l-4 12h4l12 -4h4v4q-20 2 -20 44q-12 7 -12 28q-11 0 -24 24q-12 0 -20 12h-4zM316 516v48h8q24 -36 24 -48h-20l-4 -4h-4 zM328 588h16v4h-16v-4zM392 320v4q0 8 20 8l-4 4v4l8 8h4v-20q13 0 28 12h4v-76h-4zM404 436v12q2 8 20 16l24 -8v-8l-28 -28zM436 368l12 16h4v-20l-8 -8zM436 484v12h8l8 -8v-8l-8 -8z" />
<glyph unicode="p" horiz-adv-x="488" d="M40 12v112q15 0 40 -32l-36 -40q12 0 20 -48l-4 -4h-8zM40 148v68q32 23 32 44l-20 16l-4 -4h-4l-4 4v104l8 8h40v-4q0 -8 -16 -8v-8l24 -20l12 4q0 -10 60 -32l8 -40h-4l4 -4v-40l-4 -4l4 -12l-4 -4v-4l4 -4v-4q0 -32 -48 -60l-28 12l-4 -4h-12l-12 8q0 -12 -16 -12 l8 -16l-4 -4h-4zM40 452v76l48 48h4l-16 -72h-12v-4q12 0 20 -16v-4l-4 -4l12 -32v-4h-4q-48 0 -48 12zM40 584v4l12 12h4l8 -8v-4l-12 -12h-4zM40 660v4l20 12h64l8 16q0 9 -36 20l-52 -12l-4 12l4 4l-4 20v68h4q92 -83 92 -100q0 -12 24 -12v-8q-9 -17 -32 -24l-20 4 q-41 0 -64 -8zM40 852v4l8 8h16q8 0 20 -52h-4zM44 312q0 -8 24 -8v-4l4 4h24v8l-20 4zM48 188l4 -20h4v16l-8 8v-4zM68 192h20v16q-20 -5 -20 -12v-4zM80 108v4l24 12h4v-4l-20 -20zM96 240q0 -8 12 -8h8v4zM100 388v4l56 12v4h-16l-4 40h-4v-20l-28 4v4q12 18 12 36h4 l-4 4v4l4 4v4l-4 20l4 12l-12 48l4 4h4l24 -4l32 4l4 -4v-20q0 -8 -20 -8v-4q16 0 16 -12h4l-4 -20l4 -28q-44 -4 -44 -12v-4l28 -4h12l-8 -40l4 -12q0 -17 -40 -20l-12 4l-12 -4zM108 596v4q9 9 60 24l8 -24l-8 -8h-4l-4 4l-4 -4h-4l-16 4l-24 -4zM120 772v4h4l12 -12l4 4 h4l4 -4h4l12 4l20 -4q9 24 16 24h8l4 -4h4v8l-4 20l12 4l4 -4h8v4l-16 4v8l4 4v4q-12 0 -12 8v4l20 16h28q112 -14 112 -44l-4 -4v-8h4v8h4q8 0 8 -16l12 8l4 -12l-4 -12h4l12 4q24 -30 24 -48l-12 -8l-28 4h-4l-20 -4v-8q0 -22 32 -40l40 16l4 -4v-16l-104 -12v4 q16 21 16 36v28l4 4l-4 4v8l4 4v4h-4l-16 -4q-5 20 -12 20q-20 -36 -36 -36v-12l4 -4v-4l-4 -4l-32 12h-84l-12 -8zM124 308l8 -8h16l8 8v4l-20 4h-4zM144 496h16v4h-16v-4zM236 448v4l4 4h24v-8h4q0 10 32 28q0 8 44 8v4l-28 8l4 24h8l32 -28q3 32 12 32l12 -28 q0 -34 -92 -40l-8 -12l8 -8l4 4h4l56 -12l4 -4h12l12 8h32v-4l-80 -84l-20 4l-16 -4q-18 13 -36 84h-4q0 -24 -8 -24l4 -4v-12l-8 -8l-8 8l4 4l-4 20v32zM296 396l20 -4l16 4v4h-36v-4zM328 612v8h36v-8h-8l-4 4l-4 -4h-20zM336 556l4 4l20 -4h12v-4l-16 -16zM404 628v4 l40 12v-4l-24 -28h-12l4 4v4zM408 468q0 11 36 40h4q0 -48 -16 -48z" />
<glyph unicode="q" horiz-adv-x="516" d="M40 368v8l96 96l16 -4l12 4l-4 28l4 4h4l4 -4v-64l-8 -12l-20 4h-16l8 -8l-4 -4v-12l20 -20q0 -11 -84 -16v4l-24 -8zM40 556v8l8 8l4 -4v-8l-8 -8zM48 148h4l12 -4v4q0 28 24 28l12 -4v4l8 8v4l-8 12v4l4 4l-4 4v4q0 8 12 8l-4 4v4q0 15 36 20q0 24 28 24v-80l4 -28 l-12 -4v-4q44 -10 44 -32l4 4h8q40 -12 40 -24l-4 -20l24 -8v-8q-100 -40 -100 -52v-8h32l8 -8l-4 -4l4 -4l-4 -4q-58 6 -128 72q-40 63 -40 84zM48 584l8 8h4l-8 -8h-4zM52 732q0 50 100 120l32 12v-4q-61 -68 -72 -68v-4l-20 4h-4l12 -16l-44 -44h-4zM56 324l12 8h40 q29 0 64 16v-32q-20 -3 -20 -12v-4q20 0 20 -8v-8h-4l-12 8q-36 -10 -36 -24h-20q-7 0 -20 40q-24 8 -24 16zM64 592l16 4l4 -4v-4l-4 -4h-8zM64 616v8q16 32 68 32v12h8l4 -4l4 4h8v-4l-48 -48h-44zM72 604v8h20v-8h-20zM104 404h4v16h-4v-16zM116 436h12v8h-4zM128 52 l36 -20h8l12 28q-6 40 -28 40q-13 0 -28 -48zM136 200l8 -8l4 32l-4 12l-8 -8v-28zM164 728l16 12h12l8 -8l-16 -16h-8zM264 0q0 36 40 36l64 28l4 -24h8l8 8v8q-12 0 -12 8q0 11 56 28q12 -12 40 -12l4 -4v-76h-20l-4 -4l-12 12h-4q-24 0 -24 -32l-16 -8q-8 0 -60 44 q-40 -20 -68 -20l-4 4v4zM292 120l20 28q-12 0 -12 8q12 0 20 56l-4 4v28l4 4l-4 4v12l4 4l-4 4v16q0 8 12 8l-12 16v32l16 20l20 -4h4l4 12l-4 16l20 16l36 -40q36 5 36 16h8v-112l-4 -4v-4l-60 4h-16q0 12 -16 28l-4 -4h-4l-4 4h-4q0 -8 -12 -8l-4 -12q16 -2 16 -12 l-4 -12l4 -4h4l12 4l44 -4h24v-8h-4l-4 4h-4l-4 -4v-8l12 -4l16 8l-4 12h4l12 4l4 -4v-24q0 -8 -16 -8v-4q16 0 16 -12q0 -64 -40 -64l-40 -20q-5 20 -12 20v-4l4 -20l-48 -20zM312 824v4l8 36l20 -8v-8l-24 -24h-4zM316 360v4l8 8l-4 4v8h8l-8 12v4q12 0 12 8q-16 0 -16 8 t24 8l8 16h4l4 -4l4 4h8l8 -8l-40 -44h4l32 32h4v-8q-4 -14 -44 -36q0 -20 -12 -20zM316 496v4l8 8h4v-12h-12zM316 532v12l4 4l-4 12l4 4v4l-4 12l4 24l-4 4v4q0 20 68 20l16 -16h16q13 24 36 24l4 -4v-16q0 -11 -48 -20l-16 4l-12 -4l-4 4l-12 -16q0 -19 44 -20 q21 -1 44 12l4 -4v-4l-20 -16l4 -16h-24q-85 0 -96 -12zM320 452v16l4 4v4l40 -8v-4q0 -9 -44 -12zM324 552l20 -4l4 4v4l-20 4l-4 -4v-4zM332 196l20 -4h20v4l-4 12h4l44 8l-12 12h-4q-13 0 -28 -12h-4l-16 12h-8zM352 560h16v4h-16v-4zM372 700v8l56 56q28 -37 28 -92 l-8 -8l8 -8v-4l-4 -4v-4l-64 12l8 44h-4l-12 -8zM400 684h20v4h-20v-4zM412 436v4q0 8 24 16q16 -6 16 -12q0 -8 -36 -12zM440 12l16 -8q12 18 12 36h-20z" />
<glyph unicode="r" horiz-adv-x="516" d="M40 2v468h4l16 -12l12 12h4v-4l-8 -20h-8v8h-4l-12 -12q24 0 24 -20q20 0 20 -24l4 4h8l28 -24h4v8h8v-16l-8 -12l8 -8l-4 -4v-4l8 -8v-8l-4 -4v-4q6 0 20 -52l4 -4q0 -12 8 -12v-8h-4l4 -40v-32l-8 -8l-48 12q-48 -7 -48 -32q50 -20 76 -20l24 8l4 -4v-76h-4l-40 8 l-44 -24v-8h-4q3 -11 20 -20h24l32 8l8 -12l-4 -4h-4v4l-4 -4h-4l-4 4l-4 -4h-4l-16 4l-4 -4h-4l-20 4l-16 -4v4l-4 -4h-8l-4 4l-4 -4h-4zM40 690v12h8v-12h-8zM40 790v64l8 8h8l4 -4l4 4h132l4 -28h4q0 28 8 28h60v-8q-26 0 -28 -12v-24q8 -16 20 -16v-8l-36 -36h-4 q-61 28 -76 28h-24q-9 -36 -20 -36l-4 28h-4q0 -36 -8 -36l-4 4l4 4v4q0 33 -48 36zM48 706v4l8 8h4l8 -8l-12 -12zM52 342h36v8h-28zM64 362h20l4 -4l28 8v4l-12 12h-32l-8 -8v-12zM72 234l12 -4h8v4l-16 4h-4v-4zM92 198l16 4v12l-4 4v4l-12 -4v-20zM116 194l8 -8h20v16 h-20zM260 298v12h4l4 -4h4q0 12 28 28h4q8 0 8 -20q10 -12 24 -12l24 32q-12 40 -20 40h-8l-12 -8l-4 4v16l16 32l-8 8l4 4h4l12 -4l80 8v-4q-6 -21 -60 -68q3 -16 32 -40l4 -36l-40 -8q0 -8 12 -8l4 -4v-4l-8 -8l8 -16l16 12h-4l-12 -4v4l8 8h8q32 0 32 -48l-108 -132 l-20 76l48 28l-24 24l8 24v8q0 6 -16 12q-24 -7 -24 -36h-8l-16 72q40 4 40 12h-32l-4 -4h-4zM300 470v4q0 8 40 12v4h-20v4l24 16l20 -4h12q0 12 28 12l8 12q-12 0 -12 8l40 24l4 4l8 -8l-8 -8l8 -8v-4q0 -60 -28 -60l-4 -4q0 -12 12 -12v-8q-60 5 -60 20q32 0 32 12l-4 4 h-36q0 -16 -12 -16q-8 0 -8 -12h-16l-20 -4zM328 22l16 16l-16 16q7 18 24 28h16q8 0 8 -12l4 4h8v-8l20 4h8l4 -4l20 8v-4l4 4h8q12 0 24 -72l-12 -4l-32 12l-20 -12h-12l-4 4l-4 -4h-8l-4 4l-4 -4h-8l-4 4l-4 -4h-8l-4 4l-4 -4h-4q-8 0 -12 24z" />
<glyph unicode="s" horiz-adv-x="512" d="M40 234l4 4h36l20 4v-4l4 4h40l4 4h4l4 -4v-12q-20 -17 -32 -44l-12 -12q-72 0 -72 60zM56 630v48q0 134 136 188l64 8q145 0 200 -136v-12l-4 -4l-48 4h-64q-8 0 -8 12l-20 -8q-21 24 -52 24q-54 0 -68 -76q-12 0 -12 -12l-20 -4l-4 4h-4l-4 -4h-4l-16 8q-28 -7 -28 -16 l8 -8l-8 -12l12 -20l-52 -12v4zM68 122q50 48 80 48q48 -16 64 -36l-4 -28v-28l8 -8q16 23 20 44h32q48 10 48 28q20 14 20 52l4 4q0 8 12 8v8q-17 0 -24 52l-92 108q-4 32 -16 32h-4l-12 -8l-44 44l20 -4h8v44l-12 12h-12q-12 0 -12 -44q-15 8 -48 56l4 4v4l-20 20v4 l68 -12l4 4h28l4 -4l4 4h4q50 -49 132 -72q0 -10 16 -12q124 -128 124 -224v-16q0 -156 -136 -208l-60 -8h-8l-12 12l4 12q-14 20 -24 20q-28 -10 -28 -36h-8q-61 0 -128 108zM176 610v4l8 8h8l8 -8l-4 -4h-20zM208 442h8l-4 -20h4q52 0 52 -8q52 8 52 16v4l-32 4v8h12v8h-4 q-20 0 -20 -16h-24v4l4 4q0 12 -16 12v4l-32 -8v-12zM208 562v4h8l-8 12h4q16 -8 16 -24h-12zM224 530v4h20l40 -36h-8zM292 386q3 -12 32 -12q0 12 16 12l4 4v4l-44 16zM336 414h16v4h-16v-4zM336 670l4 4h48l48 12h24l8 -8q0 -12 -128 -24v4zM336 698v8h16v-8l-12 -4z M352 286q4 -16 24 -16h4q18 16 28 16q0 12 -12 12l-4 4v40l8 12h-44v-4q32 0 32 -8v-32q0 -8 -28 -12zM352 406l8 -8h8v16l-16 -4v-4zM372 114l8 -8h4l-8 8h-4zM412 206h32v4h-32v-4zM432 694v16h24l8 -8l-8 -8h-24z" />
<glyph unicode="t" horiz-adv-x="488" d="M40 738v116l8 8h352q8 0 8 -20l24 -16q16 0 16 -8v-80l-8 -8h-24l-4 4l-4 -4h-100v-52l-4 -4l4 -4v-4l-8 -12l8 -12h-4l4 -4v-8h-24l-100 4l-4 -4l-4 4v48l4 16l-4 16v16h-128zM64 754h20v4l-4 12h-12zM72 822l12 -16q32 14 32 40l-4 4h-8q-22 0 -32 -24v-4zM80 738h16v8 h-16v-8zM176 2v120l8 12l-8 8v92q20 17 20 32v8h-8v8q22 104 36 104l8 -8l-4 -20q16 0 16 -20q12 0 12 -32h4q0 12 8 12l8 -8l-4 -20v-8h4q0 24 28 32h4v-308l-8 -8h-8l-4 4l-4 -4h-8l-4 4l-4 -4h-20l-4 4l-4 -4h-8l-4 4l-4 -4h-16l-4 4l-4 -4h-8l-4 4h-4l-4 -4zM176 338 v188l8 8l12 -12h8l16 12h12l4 -4h4l-56 -192h-8zM176 542v20l12 12h32l28 4l4 -4q-5 -32 -16 -32h-60zM176 602v16l8 8l116 -4l4 -4h4l-4 -4l4 -20v-84q-10 -24 -28 -28l-4 4h-4l-24 -8v4q7 56 24 56l-8 8q8 40 36 64h-8l-4 4l-4 -4l-4 -16h-20v12l-4 -4h-4l4 -4v-8h-16 q-64 0 -64 12zM228 422q10 48 20 48v-8l-12 -40h-8zM236 670h48l-8 8l-40 -4v-4zM260 206l12 8l4 -4v-4l-4 -4h8l8 8l-4 16h-12l-12 -12v-8zM296 770l12 -12h32l4 20l-32 8q-16 -6 -16 -12v-4z" />
<glyph unicode="u" horiz-adv-x="492" d="M40 166v4h4l-4 4v8q0 52 8 72l52 -24v-4l-8 -12l8 -8l-4 -4h12l-4 4v8h4l4 -4h4v8l-4 4v4l4 4h4l16 -8l4 4h20l8 -8v-4l-4 -4l8 -32l-12 -4v-4q20 -1 20 -12v-4h-28v-4q26 0 76 -24h16q1 -36 12 -36q8 33 52 72q3 32 8 32l-4 4v68l4 24l-4 20h4l-4 4v180q4 12 24 12v-8 l-4 -4l4 -4v-8q0 -12 -16 -12v-12l36 -8l16 8l24 -8h16l32 8l8 -8v-76q0 -9 -60 -16l-4 -4l-20 -8l-16 -16v-4q72 -18 72 -24l-36 -36v-4q15 0 20 -16v-8l-236 -236q-128 67 -128 160zM40 286v384q0 8 16 8v4q-16 0 -16 8v20q24 0 24 8v16h-4l-16 -12h-4v76l12 12l-12 20v24 l8 8h112v-4l-112 -116l16 -4l100 100h4v-208q0 -22 -20 -32h-12q-15 12 -28 12q0 -11 -20 -20v-4l4 -4v-4l-4 -4h-12l-16 12h-4l16 -20v-4q0 -8 -16 -8l4 -4v-8q0 -8 -12 -8v-4q12 0 12 -8l-12 -4l4 -20v-4l-4 -4l4 -4v-8l-4 -4v-4l16 -12l-8 -12q8 0 8 -16q26 0 32 -36 q14 0 32 -24q9 0 40 -40v-8l-8 -8l-8 8q-28 -20 -28 -36h-12q-19 16 -32 16l-12 -4l-8 8l-12 -20h-8zM76 118h24v4h-24v-4zM136 98h4l8 8v4l-12 -4v-8zM152 258l12 16l4 -4v-24h-4zM204 -2l112 112q0 -12 24 -12v-20q64 32 64 72q12 22 12 44v16l-80 -76h-12v4l88 88l8 -8 l28 28h4v-64q0 -12 -20 -12v-4q16 0 16 -16q0 -55 -92 -128q-50 -32 -112 -32l-40 4v4zM312 542v4l4 4l-4 4v12l4 4l-4 4v16q0 23 16 36v12h-16v20l4 4l-4 4v4l4 4v4l-4 24v8l4 4l-4 4v136l8 8h124l8 -8l-20 -20l20 8v-324q-20 -16 -40 -16q-30 0 -48 36q-32 3 -32 8l-4 -4 h-16zM316 122v4l4 4h8v-4l-8 -8zM320 206h4q60 54 60 64l-4 4q-23 -16 -40 -16q0 -13 -20 -36v-16zM324 834q20 -27 20 -40v-16l-8 -36l84 84q-36 0 -80 28zM332 342l12 -4l12 4v4l-20 4l-4 -4v-4zM360 674l16 -16q32 0 36 32l-12 32zM368 294h16v4h-16v-4z" />
<glyph unicode="v" horiz-adv-x="568" d="M40 858l4 4h128l8 -8v-8l-4 -4v-4q15 0 32 -156l4 -16q-48 -13 -48 -24v-4l20 -8l20 4v-4l4 4h4l8 -8v-8q-40 -48 -56 -48q-36 -14 -36 -32q0 -23 -20 -32q-8 15 -28 140q11 0 48 32v4q0 28 -60 36l-8 44l4 28q-13 0 -24 68zM88 790l12 -4l-4 -4v-8l32 -4l40 60v4l-20 4 l-8 -8l-12 4zM104 726h8v-4q40 4 40 12v8h-24q-24 0 -24 -12v-4zM120 434q89 92 108 92h4l20 -96l-28 -8v-16q7 -16 16 -16l-36 -40l-64 8l-4 -4q-10 10 -16 80zM136 350h4l64 -12l16 4q0 -14 12 -16t12 -16l12 8h4l8 -8l-4 -4v-4q12 0 20 -92q8 0 24 112l4 4h48v4h-48l-4 4 l12 32q18 -8 52 -8h32v4q-16 0 -16 12h4l4 -4h8v4l-16 4l-8 -8h-28l-28 -4v4l12 16h-4l-12 -12h-4q25 196 48 196l4 4l64 -8h8q0 16 -64 16h-16l-8 8q9 104 32 104l24 24l4 -4h4q0 12 80 92l28 28h4q-52 -308 -60 -316h-4l4 -12q0 -44 -12 -44l4 -4v-12l-100 12q0 -9 28 -12 v-4q-19 -28 -40 -28v-16l32 16l-4 4v4l20 20h4l8 -8q-16 0 -16 -8h4l48 8h4l4 -4h4q-6 -68 -32 -68l-20 -8v-16h24l8 -8v-12l-8 -8l-4 4v4l-12 -4v-8q0 -7 20 -12l-56 -292l-4 -4h-20l-4 4l-4 -4h-8l-4 4l-4 -4h-28l-4 4l-4 -4h-8l-4 4l-4 -4h-24l-4 4l-4 -4h-8l-4 4l-4 -4 h-8l-8 8l20 20h16l4 -4l12 4q0 12 -24 24q-16 -2 -16 -28h-20l-4 -4h-4q-12 27 -20 104l16 24v8q-13 0 -20 48l4 16v8l-16 -12l-8 40l4 4q-12 0 -12 40q-6 0 -8 52zM144 754l8 -8l4 4v12h-12v-8zM188 238h4l28 32h-4zM228 194l4 -4v-4l12 4v16zM240 290h4l12 16h-4zM244 250 h20v4l-4 4v4l-16 -4v-8zM296 222l20 -4h8l20 4v4l-20 4h-20zM320 270l4 -4h16v4l-8 8h-4zM372 290l28 -4l16 4v4l-16 4l-4 -4h-8l-4 4l-12 -4v-4zM388 826q6 36 16 36h84v-8h-20l-4 4h-4l-52 -52zM420 470h4l20 24h-4zM420 654h32l8 8v4h-20l-20 -4v-8zM500 854v8h12v-8h-12 z" />
<glyph unicode="w" horiz-adv-x="748" d="M40 852l4 12h128q10 0 12 -48l-8 -8h12v-16q-20 -28 -32 -28v-28l20 -4h8l4 4h4l16 -68l-20 -12h-4q-15 0 -32 20l-16 4q-29 -5 -44 -20l4 -4v-4l-12 -12h-8l-4 20v12l8 12v4l-8 12l40 44h-4l-40 -40h-4v4q18 64 28 64l-20 60h-8q-8 0 -8 -16l-4 -4h-4zM80 612l4 4 q75 -16 120 -16v8l-28 4v8l32 8h4l28 -200l-4 -4l-40 12v-4q43 -40 84 -40h8q-4 11 -44 32q8 76 16 76l128 -28l4 4h4l32 -4v12q-85 24 -168 24h-4q10 108 28 108q34 -8 88 -8h12l4 -4l24 4v4l-8 8h-8l-92 20v4l8 12q-2 9 -32 20v4q8 70 25 81l75 31v16l-40 8l-40 -8l-4 4 l12 52h128q13 0 32 -180l-20 -8v-4h12l4 4h4q8 -13 16 -92l-84 -36v-4h8q39 8 76 28l20 -120l-4 -12q8 0 8 -24h4q0 28 16 28v8l-12 4q0 49 24 64l-16 4q11 96 24 96l4 -4h4q24 13 24 32v4q-36 4 -36 12q11 112 24 112l20 4l12 -4l24 8q0 23 -44 28h-4l-4 -4h-4l-4 4 q3 52 16 52h128v-4q0 -92 -32 -108l-16 -8v-4q12 0 12 -12q16 0 16 -8q-28 -196 -36 -204l-40 4h-28q7 -10 68 -28v-4l-76 -32v4l-12 -4v-12q76 -16 76 -24q0 -39 -12 -56l-64 8l-60 -8h-40v4l4 4v4q-24 0 -36 20q-52 29 -52 44v24h-4q0 -29 -12 -32l4 -4v-16q0 -28 -16 -28 h-8v-4q0 -8 12 -8l4 -4v-4l-4 -4h-56l-4 4l-4 -4h-164q-8 0 -28 136l20 4v4q-24 0 -24 16l-4 20q32 -3 32 -8q28 7 28 16v12l-8 8h-32l-20 -16h-4v4zM80 628v4h36v-8h-16zM128 340l4 4h224q-18 -180 -28 -180l4 -4l-8 -48l-48 8q0 -6 16 -12l-8 -44l4 -4q0 -35 -44 -60h-56 q-9 0 -16 72l24 4v8q0 7 -28 12l-4 20q0 8 12 8v4q-24 0 -32 116l-4 4v4h4l12 -12l28 20h4l16 -12l16 8l-4 20v24h-8q0 -18 -16 -28l-8 20q-25 -2 -40 -16q-12 0 -16 64zM208 316l76 -16l4 4v8l-68 12l-12 -4v-4zM244 236l44 -8l4 4v4l-4 4h-44v-4zM252 148q4 -28 12 -28 l12 16v8q0 22 -16 28zM260 8l20 16h8v-20l-20 -4zM288 372h8v4l-8 8v-12zM304 8v4l4 12h4v-16h-8zM304 56l4 4h4l-8 44l4 4h8l8 -8l-8 -60h-8zM388 388v12l8 8q0 -8 36 -32h-4q-40 0 -40 12zM392 648h16v4h-16v-4zM396 340l4 4h76l24 -4l20 4l4 -4l4 4h40q0 -16 16 -16 l40 20l4 -4v-4l-12 -72l-28 4v48l-8 -8v-32h-4q-56 48 -88 48h-8l-8 -8q0 -27 108 -84v-4l28 20h8q-27 -180 -36 -184h-12q0 -8 12 -8l4 -4v-4q0 -52 -28 -52h-12l-4 4l-4 -4h-20l-4 4l-4 -4h-20q-8 0 -8 12h-4q0 -12 -8 -12h-12q-1 0 -12 77q-14 110 -40 227zM428 224h4v44 h4l-4 4v52h-4v-100zM440 264l8 -8h20l8 8v4l-20 16q0 -8 -16 -8v-12zM448 516l12 -12q24 2 24 24h-8l-28 -4v-8zM504 104q36 3 36 12v4h-24l-12 -12v-4zM508 32h4v32h-4v-32zM528 488l4 -4h8q0 8 12 8v4h-16zM596 732h4l28 8v8l-16 4zM608 564h20v8h-12zM676 736v8h16v-4 l-4 -4v-4z" />
<glyph unicode="x" horiz-adv-x="560" d="M40 860l4 4h52l-8 -32l4 -20q9 0 16 36l-4 16h76q14 0 52 -136h-132q-16 8 -16 24l16 12l8 -8q25 0 60 28h-8q-20 0 -76 -20q-11 11 -44 96zM100 712l4 4h124v-4q-1 -8 -76 -44v-4h8q22 0 84 32q16 -26 28 -72q-28 -13 -28 -36v-16h4l4 4h4l4 -16h4l40 40l-12 28 q26 88 36 88h32v-8q-16 0 -16 -8v-4l4 4h4l4 -4h4q0 6 16 12v8h28v-8q-12 0 -12 -8h8q24 0 24 16h36v-4q0 -25 -32 -60l4 -16q-15 -44 -24 -44l-8 8v-40q0 -20 -92 -112l-72 -72h-4l4 24v12h-4q-3 -56 -16 -56h-4l-24 8v-8h-8l28 76l-28 80l80 24v16h-4l-76 -24h-4 q-7 0 -76 184zM156 8l40 40v-4q-10 -44 -20 -44h-12zM172 60v8q41 65 64 88v-4q0 -35 -64 -92zM232 168v4q14 28 20 28v-4q-5 -28 -16 -28h-4zM236 420h4v16h-4v-16zM244 468h4v16h-4v-16zM288 264l40 48h12v-28h4v40q8 16 20 16v8l-12 -8l-8 8l28 24h8l16 -60v-4h-8v8h-4 q0 -26 -72 -100v-4h-4q-11 0 -20 52zM308 492l24 -4q24 18 24 36v4h-20q-9 0 -20 -32h-8v-4zM316 184v4l44 48h4v-32h4v44l4 4h8v-20l4 -60q-15 -9 -60 -12zM320 320v4l12 12h4v-4l-12 -12h-4zM328 736q41 117 52 128h132l8 -8q-38 -100 -48 -104q-20 0 -20 -24h-116z M332 136l12 4q136 0 136 -24l40 -112l-4 -4h-28l-4 4l-4 -4h-32l-4 4l-4 -4h-28l-4 4l-4 -4h-16q-13 0 -56 136zM348 368v4l20 20v-4q0 -11 -20 -20zM376 64l12 -4l12 4v4h-24v-4zM388 176l4 4v88l8 20h12l40 -104q-14 -12 -60 -12z" />
<glyph unicode="y" horiz-adv-x="548" d="M40 832q27 11 32 24h-8v8h40v-4l-4 -4v-4h4l28 4v-4l-72 -72q-9 0 -20 52zM88 700q23 0 120 44l48 -144l-8 -8v-4q12 0 12 -40q17 -48 24 -48l16 -8l24 36l-4 4v4l12 40l-8 24h4l-24 72q0 21 28 88l80 -60v-44l-8 -8l-12 12l-32 -8v4q-24 -5 -24 -12v-4q0 -17 40 -28h4 q21 0 24 12l-4 4l4 4h4l4 -4v-20q0 -34 -80 -248l4 -4v-4l-8 -8h-24q0 50 -72 68h-4q-32 0 -32 -16h-8l-68 208l20 4v8l-24 4l4 4v28h-4l-12 -4q-16 32 -16 52zM136 744l52 52h8l8 -32zM200 8v36l4 4l-4 4v280l8 8l48 -8l60 8h16l4 -28v-52l-4 -4l4 -4v-12l-4 -4l4 -4v-4 l-4 -4l4 -4v-32l-4 -16l4 -16l-4 -16l4 -4l-4 -12l4 -64v-24l-4 -4l4 -4v-20l-8 -8q-16 18 -20 72l4 12h-4q-12 0 -12 12q-24 -11 -24 -44l12 -48l-4 -4h-4v4l-4 -4h-40l-4 4l-4 -4h-16zM216 504h16v8h-4l-12 -4v-4zM336 784l8 8h4l4 -12q44 13 44 24v12q0 8 -36 12l-8 -20 h-8q15 56 24 56h132l4 -4h4q-20 -76 -56 -76l-72 -36q-25 12 -44 36zM400 732v4l8 8l4 -4v-4l-8 -8z" />
<glyph unicode="z" horiz-adv-x="464" d="M40 28h4l-4 4v16l4 4l-4 4v8l4 4l-4 4v16h8l84 -84l-4 -4h-12l-4 4l-4 -4h-8l-16 4l-16 -4v4l-4 -4h-20zM40 740v8h4l-4 28v60l4 20l-4 4l4 4h40q8 0 8 -24h4q0 24 8 24h60q29 -23 76 -104h8l-12 20q26 10 28 20l-4 4v4l-20 -8l-12 4v-8q-48 51 -48 68h236l8 -8v-116 l-60 -156l-36 8l-8 -20h4l28 -16q-55 -152 -64 -152q-93 64 -104 80v8l20 -4h4v4q0 8 -16 8q0 18 88 232h-136q0 8 -20 16v-16h-76zM44 136q0 16 32 52l-4 24q19 52 28 52l12 4l4 -4h4l16 4h4l8 -8l32 12l4 -4h4l56 16l-60 -152l44 -32v4q-18 20 -28 20v8h36q7 0 12 -28 l32 -8l48 16l-4 12h4q13 -24 96 -56v-60l-8 -8h-24l-4 4l-4 -4h-52l-4 4l-4 -4h-48l-4 4l-4 -4h-44l-4 4l-4 -4h-4l-32 8l-12 -4zM132 360l44 104l52 -40v-4h-20l-12 -8q0 -19 80 -44v-8q-6 -16 -12 -16h-20q-29 0 -32 12l-4 -4l-20 4h-36l-8 8l-4 -4h-8z" />
<glyph unicode="{" horiz-adv-x="364" d="M40 432v64h4l48 -48l-4 -4l16 -8h4q0 8 48 56v4h-16l-44 -44h-4v4l20 40q-12 0 -24 16v4q20 19 20 60v112l4 4l-4 4v48l4 16l-4 4q0 96 40 96l76 -80l-4 -28v-56l-20 4q-20 -41 -20 -76v-16q0 -13 40 -24v-24q0 -50 -56 -96v-4q56 -38 56 -88v-72h-8l-4 12 q-36 -12 -36 -36l8 -8h8q14 0 28 16h4v-112l4 -20l-80 -20v-12h36l44 8h4q9 -36 64 -36v-8l-20 -40l-4 4h-4q-24 -4 -24 -12q0 -20 16 -24l24 12q28 -2 28 -24h4l4 32h8v-28l-8 -8h-24l-4 4l-4 -4q-128 0 -164 100l-12 64l4 4l-4 20v132l4 16q0 52 -24 84l12 16l-16 4l-4 -4 h-4l-28 24v-4l4 -20l-4 -4h-4zM140 548q20 -16 40 -16h20q6 0 12 16q-28 0 -44 8l-8 -8l-16 4h-4v-4zM188 908q0 12 56 16l32 -40q-84 6 -88 24zM204 600l8 52v4h8v-56h-16zM304 88l4 4h4l12 -12v-36h-8zM308 868l8 8l8 -8v-12h-4z" />
<glyph unicode="|" horiz-adv-x="208" d="M40 4v24l8 8l4 -4l4 4h4l40 -40l-8 -12q44 0 44 -48h4v12h8l12 -12v-4h-112l-8 8v4l4 4l-4 4v20l4 16zM40 48v104l4 4l-4 4v16l4 4l-4 4v4l4 4l-4 4v32l4 4l-4 4v92l4 4l-4 4v124l4 4l-4 4v4l4 4v4q50 -36 88 -36h12q-22 40 -36 44q0 16 -20 16q0 9 -44 36l-4 16v340l4 4 l-4 4v16l4 4l-4 4v4l4 12l-4 20v164l8 8h112l8 -8v-1016h-88v-4l20 -4l4 4h20q44 0 44 -12v-128h-4l-16 20q-11 0 -48 44l40 4v4l-32 4l-16 -4q-24 11 -24 44h-4v-12h-4l-12 8v-20l4 -20h-4zM76 152l20 -4h8l16 16v16l-12 4q-32 -5 -32 -16v-16zM104 400h4v20h-4v-20z M124 804h4v24h-4v-24z" />
<glyph unicode="}" horiz-adv-x="364" d="M40 0v76l8 8h20l76 -76v-8l-96 -8zM44 856v36l32 32h32l4 -4h4l-4 -20v-16l4 -20q-26 -32 -40 -32q-30 15 -32 24zM44 908v12l8 8h4l8 -8l-16 -12h-4zM112 92q32 13 32 72v80h4q22 0 64 -80q12 -6 40 -56q-26 -88 -68 -88zM116 828l24 24h4l-24 -24h-4zM144 328v20 q0 76 60 108q-60 48 -60 112v12h4q64 0 64 -12l16 4v4q-12 0 -12 8t16 8l4 12l-8 8h16l12 -12v-4q0 -73 32 -100q-19 -45 -28 -104l4 -4l-8 -56v-176h-8l-56 96l4 20q-36 0 -52 56zM144 604v116l8 8h12l28 -20q0 16 28 16v4q-9 0 -40 28v4l64 68q12 -18 12 -80v-40h-4l-12 4 q0 -8 12 -8l4 -4v-48q0 -8 -40 -12l4 -4v-4l-4 -4v-4l8 -8h-12l-16 4l-4 -4h-4l-20 4q-4 -16 -24 -16zM180 512l12 -12v-4q13 0 32 32l-4 4h-16q-24 0 -24 -20zM244 440h20v4h-20v-4zM304 432l12 12v4h-8v40l8 8l8 -8v-56l-8 -8h-4z" />
<glyph unicode="~" horiz-adv-x="496" d="M40 936v4l40 40h4l4 -28v-20l-20 -4h-20zM68 916h8l16 -16v-4zM100 996l48 16l8 -32v-20l-16 -20l24 -4v68l8 8q26 0 156 -64h8q14 2 52 40l68 -52v-8q-57 -72 -124 -72q-43 0 -88 32q20 2 20 44h-4q-10 0 -16 -32v-12l-88 32l-36 -20v4q0 13 12 28v4h-20q-12 0 -12 60z M368 896l4 -12h4v12h-8z" />
<glyph unicode="&#xa2;" />
<glyph unicode="&#xa3;" />
<glyph unicode="&#xa5;" />
<glyph unicode="&#xa9;" />
<glyph unicode="&#xad;" horiz-adv-x="468" d="M40 406v48q8 16 24 16v4h-4l-16 -8l-4 4v16l8 8h68v-8h-8v-12l4 -4l12 -4v-4q44 4 76 20v-56l4 -20l4 4l4 12h4l-4 4v4l4 4l-4 4v28q0 20 8 20l12 -4v4l8 8h180l8 -8v-120l-8 -8h-60l-4 4h-4l4 20v12l-8 68h-4l-4 -40l4 -60l-4 -4h-248q-8 0 -12 28l4 4q-44 0 -44 16z M164 418h16v4h-16v-4zM340 466h4q28 0 44 -8l32 4v4l-44 12l-36 -4v-8zM360 378q6 -16 12 -16l8 36l-4 12q-12 -2 -12 -32h-4z" />
<glyph unicode="&#xae;" />
<glyph unicode="&#xb4;" />
<glyph unicode="&#x2000;" horiz-adv-x="568" />
<glyph unicode="&#x2001;" horiz-adv-x="1136" />
<glyph unicode="&#x2002;" horiz-adv-x="568" />
<glyph unicode="&#x2003;" horiz-adv-x="1136" />
<glyph unicode="&#x2004;" horiz-adv-x="378" />
<glyph unicode="&#x2005;" horiz-adv-x="284" />
<glyph unicode="&#x2006;" horiz-adv-x="189" />
<glyph unicode="&#x2007;" horiz-adv-x="189" />
<glyph unicode="&#x2008;" horiz-adv-x="142" />
<glyph unicode="&#x2009;" horiz-adv-x="227" />
<glyph unicode="&#x200a;" horiz-adv-x="63" />
<glyph unicode="&#x2010;" horiz-adv-x="468" d="M40 406v48q8 16 24 16v4h-4l-16 -8l-4 4v16l8 8h68v-8h-8v-12l4 -4l12 -4v-4q44 4 76 20v-56l4 -20l4 4l4 12h4l-4 4v4l4 4l-4 4v28q0 20 8 20l12 -4v4l8 8h180l8 -8v-120l-8 -8h-60l-4 4h-4l4 20v12l-8 68h-4l-4 -40l4 -60l-4 -4h-248q-8 0 -12 28l4 4q-44 0 -44 16z M164 418h16v4h-16v-4zM340 466h4q28 0 44 -8l32 4v4l-44 12l-36 -4v-8zM360 378q6 -16 12 -16l8 36l-4 12q-12 -2 -12 -32h-4z" />
<glyph unicode="&#x2011;" horiz-adv-x="468" d="M40 406v48q8 16 24 16v4h-4l-16 -8l-4 4v16l8 8h68v-8h-8v-12l4 -4l12 -4v-4q44 4 76 20v-56l4 -20l4 4l4 12h4l-4 4v4l4 4l-4 4v28q0 20 8 20l12 -4v4l8 8h180l8 -8v-120l-8 -8h-60l-4 4h-4l4 20v12l-8 68h-4l-4 -40l4 -60l-4 -4h-248q-8 0 -12 28l4 4q-44 0 -44 16z M164 418h16v4h-16v-4zM340 466h4q28 0 44 -8l32 4v4l-44 12l-36 -4v-8zM360 378q6 -16 12 -16l8 36l-4 12q-12 -2 -12 -32h-4z" />
<glyph unicode="&#x2012;" horiz-adv-x="468" d="M40 406v48q8 16 24 16v4h-4l-16 -8l-4 4v16l8 8h68v-8h-8v-12l4 -4l12 -4v-4q44 4 76 20v-56l4 -20l4 4l4 12h4l-4 4v4l4 4l-4 4v28q0 20 8 20l12 -4v4l8 8h180l8 -8v-120l-8 -8h-60l-4 4h-4l4 20v12l-8 68h-4l-4 -40l4 -60l-4 -4h-248q-8 0 -12 28l4 4q-44 0 -44 16z M164 418h16v4h-16v-4zM340 466h4q28 0 44 -8l32 4v4l-44 12l-36 -4v-8zM360 378q6 -16 12 -16l8 36l-4 12q-12 -2 -12 -32h-4z" />
<glyph unicode="&#x2013;" />
<glyph unicode="&#x2014;" />
<glyph unicode="&#x2018;" />
<glyph unicode="&#x2019;" />
<glyph unicode="&#x201c;" />
<glyph unicode="&#x201d;" />
<glyph unicode="&#x2022;" />
<glyph unicode="&#x2026;" />
<glyph unicode="&#x202f;" horiz-adv-x="227" />
<glyph unicode="&#x205f;" horiz-adv-x="284" />
<glyph unicode="&#x20ac;" />
<glyph unicode="&#x2122;" />
<glyph unicode="&#xe000;" horiz-adv-x="865" d="M0 865h865v-865h-865v865z" />
<glyph unicode="&#xfb01;" horiz-adv-x="664" d="M492 6v32q0 8 12 8v12l-12 60v76l8 8l4 -4l4 4h16l4 -4l92 16l4 -4v-204l-8 -8h-116zM492 286v156l4 4v4l44 -4l40 4v4l-8 8h-20l-36 4l-4 -4h-4l-16 8l4 4l-4 20v24l16 28q-16 0 -16 12v12q0 8 20 8v4q-20 0 -20 8v40l8 8l4 -4q28 10 28 16h-4l-4 -4q-32 4 -32 12v20 q37 52 80 52h8v8l-20 4v4l60 60h4v-108l-4 -24l4 -20v-20l-8 -8h-60l-28 -4l-4 12h-8q0 -16 -12 -16h-4l4 -4v-4l4 4l68 -4h16l28 4l4 -4v-80q0 -8 -32 -8v-4q32 -4 32 -12v-152l-8 -8l-4 4q-40 -7 -40 -20q0 -8 52 -20v-44l-4 -4v-4q-32 0 -32 32q-8 0 -8 -20l-4 -4h-4 l-4 4h-4l-4 -4q-28 3 -28 8l-4 -4h-20zM492 826v16l8 8h20v-4l-24 -24zM556 562h20v4h-20v-4zM568 854v8h52v-8h-52zM588 414l4 -20h8l8 20q-8 0 -8 20q-8 0 -8 -20h-4zM40 6v388l8 8h12v-8l-4 -4v-4h8l12 4l8 -16l40 20v20l8 8h8q28 0 28 -20l-4 -28l8 -8v-292l-60 -76h-64 zM40 446v228h4l128 -128v-48h36q8 0 8 -12h4v8h4l16 -12l8 8l28 -28l-12 -4q12 -15 12 -28v-4q0 -8 -12 -8l-4 -4v-12q0 -20 16 -20v-4l-12 -12h-64v4l4 4v4q-8 24 -16 24l-4 -4v8l16 8h12l36 -16v4l-36 32v4l8 12q-16 0 -16 8v4l4 4v4h-4l-16 -4l-8 16l-4 -4h-12l-4 4h-4 l-12 -12h-4l-4 4h-4l-4 -28l4 -12l-4 -4h-4q-4 12 -24 12l-20 -8q-40 4 -40 12zM40 746v108l8 8h280v-12l20 4h28v-8l-40 -40h-4v40h-4v-52l-60 -60l-16 -4h-60l-4 4l-16 -4v-108h-8zM48 254q12 -24 24 -24l-8 -12q12 -14 16 -76q27 -61 52 -76l20 16l-4 20v8l4 4l-4 4l8 96 l-36 24l-4 -4h-8l-60 24v-4zM84 574l4 -4v-4l12 4v4h-16zM84 790l12 -16q16 4 16 24v4q0 9 -20 12v-4zM108 250l4 -4v-4q36 10 36 36q0 6 -16 12q-24 -8 -24 -32v-8zM124 322h20v4h-20v-4zM204 742h4l4 16l-4 4h-4v-20zM284 374v4l4 36l-4 12l4 4h4l56 -60l-4 -4h-52z M288 730v4l120 120h4v-116l-8 -8h-12l-8 8v48q0 8 24 8v4q-24 0 -24 16v4h-4q0 -20 -12 -20v-4q12 0 12 -8v-48l-8 -8h-84zM300 482v8l8 8h8q7 0 16 -24l4 4h4l8 -8v-16l-8 -8z" />
<glyph unicode="&#xfb02;" horiz-adv-x="888" d="M492 6v216l8 12l-8 32v40l56 40l4 16q-4 24 -40 24l-16 -4l-4 4v80l4 4v4l4 -4q49 9 76 24l12 -4l8 8l4 -4v8h8q0 -12 12 -12l4 -4v-288l-4 -108l4 -4h4q8 0 24 48h188l8 -8v-120l-8 -8h-268l-12 8l-8 -8h-52zM492 590v8l4 4v4l28 -4h36l20 4v4h-48l-8 8l4 4v4 q0 12 -36 24v16l4 4l-4 4v124l4 16l-4 16l8 8h24v8h-24l-8 8l8 8h116l8 -8v-132l-8 -8h-48l-16 4l-24 -8v-4h88l8 -8v-64l-4 -48l4 -4l-4 -4l-20 4l-12 -4l-28 4h-60zM512 782l44 -12h12l12 12l-68 8v-8zM528 826l4 -12h4l4 28v16q-8 0 -12 -32zM548 250l8 8v28h-8v-36z M556 390l32 -12l4 4v12q-32 0 -32 24v16h-4v-44zM40 6v388l8 8h12v-8l-4 -4v-4h8l12 4l8 -16l40 20v20l8 8h8q28 0 28 -20l-4 -28l8 -8v-292l-60 -76h-64zM40 446v228h4l128 -128v-48h36q8 0 8 -12h4v8h4l16 -12l8 8l28 -28l-12 -4q12 -15 12 -28v-4q0 -8 -12 -8l-4 -4v-12 q0 -20 16 -20v-4l-12 -12h-64v4l4 4v4q-8 24 -16 24l-4 -4v8l16 8h12l36 -16v4l-36 32v4l8 12q-16 0 -16 8v4l4 4v4h-4l-16 -4l-8 16l-4 -4h-12l-4 4h-4l-12 -12h-4l-4 4h-4l-4 -28l4 -12l-4 -4h-4q-4 12 -24 12l-20 -8q-40 4 -40 12zM40 746v108l8 8h280v-12l20 4h28v-8 l-40 -40h-4v40h-4v-52l-60 -60l-16 -4h-60l-4 4l-16 -4v-108h-8zM48 254q12 -24 24 -24l-8 -12q12 -14 16 -76q27 -61 52 -76l20 16l-4 20v8l4 4l-4 4l8 96l-36 24l-4 -4h-8l-60 24v-4zM84 574l4 -4v-4l12 4v4h-16zM84 790l12 -16q16 4 16 24v4q0 9 -20 12v-4zM108 250l4 -4 v-4q36 10 36 36q0 6 -16 12q-24 -8 -24 -32v-8zM124 322h20v4h-20v-4zM204 742h4l4 16l-4 4h-4v-20zM284 374v4l4 36l-4 12l4 4h4l56 -60l-4 -4h-52zM288 730v4l120 120h4v-116l-8 -8h-12l-8 8v48q0 8 24 8v4q-24 0 -24 16v4h-4q0 -20 -12 -20v-4q12 0 12 -8v-48l-8 -8h-84z M300 482v8l8 8h8q7 0 16 -24l4 4h4l8 -8v-16l-8 -8z" />
<glyph unicode="&#xfb03;" horiz-adv-x="1116" d="M944 6v32q0 8 12 8v12l-12 60v76l8 8l4 -4l4 4h16l4 -4l92 16l4 -4v-204l-8 -8h-116zM944 286v156l4 4v4l44 -4l40 4v4l-8 8h-20l-36 4l-4 -4h-4l-16 8l4 4l-4 20v24l16 28q-16 0 -16 12v12q0 8 20 8v4q-20 0 -20 8v40l8 8l4 -4q28 10 28 16h-4l-4 -4q-32 4 -32 12v20 q37 52 80 52h8v8l-20 4v4l60 60h4v-108l-4 -24l4 -20v-20l-8 -8h-60l-28 -4l-4 12h-8q0 -16 -12 -16h-4l4 -4v-4l4 4l68 -4h16l28 4l4 -4v-80q0 -8 -32 -8v-4q32 -4 32 -12v-152l-8 -8l-4 4q-40 -7 -40 -20q0 -8 52 -20v-44l-4 -4v-4q-32 0 -32 32q-8 0 -8 -20l-4 -4h-4 l-4 4h-4l-4 -4q-28 3 -28 8l-4 -4h-20zM944 826v16l8 8h20v-4l-24 -24zM1008 562h20v4h-20v-4zM1020 854v8h52v-8h-52zM1040 414l4 -20h8l8 20q-8 0 -8 20q-8 0 -8 -20h-4zM492 6v388l8 8h12v-8l-4 -4v-4h8l12 4l8 -16l40 20v20l8 8h8q28 0 28 -20l-4 -28l8 -8v-292l-60 -76 h-64zM492 446v228h4l128 -128v-48h36q8 0 8 -12h4v8h4l16 -12l8 8l28 -28l-12 -4q12 -15 12 -28v-4q0 -8 -12 -8l-4 -4v-12q0 -20 16 -20v-4l-12 -12h-64v4l4 4v4q-8 24 -16 24l-4 -4v8l16 8h12l36 -16v4l-36 32v4l8 12q-16 0 -16 8v4l4 4v4h-4l-16 -4l-8 16l-4 -4h-12l-4 4 h-4l-12 -12h-4l-4 4h-4l-4 -28l4 -12l-4 -4h-4q-4 12 -24 12l-20 -8q-40 4 -40 12zM492 746v108l8 8h280v-12l20 4h28v-8l-40 -40h-4v40h-4v-52l-60 -60l-16 -4h-60l-4 4l-16 -4v-108h-8zM500 254q12 -24 24 -24l-8 -12q12 -14 16 -76q27 -61 52 -76l20 16l-4 20v8l4 4l-4 4 l8 96l-36 24l-4 -4h-8l-60 24v-4zM536 574l4 -4v-4l12 4v4h-16zM536 790l12 -16q16 4 16 24v4q0 9 -20 12v-4zM560 250l4 -4v-4q36 10 36 36q0 6 -16 12q-24 -8 -24 -32v-8zM576 322h20v4h-20v-4zM656 742h4l4 16l-4 4h-4v-20zM736 374v4l4 36l-4 12l4 4h4l56 -60l-4 -4h-52 zM740 730v4l120 120h4v-116l-8 -8h-12l-8 8v48q0 8 24 8v4q-24 0 -24 16v4h-4q0 -20 -12 -20v-4q12 0 12 -8v-48l-8 -8h-84zM752 482v8l8 8h8q7 0 16 -24l4 4h4l8 -8v-16l-8 -8zM40 6v388l8 8h12v-8l-4 -4v-4h8l12 4l8 -16l40 20v20l8 8h8q28 0 28 -20l-4 -28l8 -8v-292 l-60 -76h-64zM40 446v228h4l128 -128v-48h36q8 0 8 -12h4v8h4l16 -12l8 8l28 -28l-12 -4q12 -15 12 -28v-4q0 -8 -12 -8l-4 -4v-12q0 -20 16 -20v-4l-12 -12h-64v4l4 4v4q-8 24 -16 24l-4 -4v8l16 8h12l36 -16v4l-36 32v4l8 12q-16 0 -16 8v4l4 4v4h-4l-16 -4l-8 16l-4 -4 h-12l-4 4h-4l-12 -12h-4l-4 4h-4l-4 -28l4 -12l-4 -4h-4q-4 12 -24 12l-20 -8q-40 4 -40 12zM40 746v108l8 8h280v-12l20 4h28v-8l-40 -40h-4v40h-4v-52l-60 -60l-16 -4h-60l-4 4l-16 -4v-108h-8zM48 254q12 -24 24 -24l-8 -12q12 -14 16 -76q27 -61 52 -76l20 16l-4 20v8 l4 4l-4 4l8 96l-36 24l-4 -4h-8l-60 24v-4zM84 574l4 -4v-4l12 4v4h-16zM84 790l12 -16q16 4 16 24v4q0 9 -20 12v-4zM108 250l4 -4v-4q36 10 36 36q0 6 -16 12q-24 -8 -24 -32v-8zM124 322h20v4h-20v-4zM204 742h4l4 16l-4 4h-4v-20zM284 374v4l4 36l-4 12l4 4h4l56 -60 l-4 -4h-52zM288 730v4l120 120h4v-116l-8 -8h-12l-8 8v48q0 8 24 8v4q-24 0 -24 16v4h-4q0 -20 -12 -20v-4q12 0 12 -8v-48l-8 -8h-84zM300 482v8l8 8h8q7 0 16 -24l4 4h4l8 -8v-16l-8 -8z" />
<glyph unicode="&#xfb04;" horiz-adv-x="1340" d="M944 6v216l8 12l-8 32v40l56 40l4 16q-4 24 -40 24l-16 -4l-4 4v80l4 4v4l4 -4q49 9 76 24l12 -4l8 8l4 -4v8h8q0 -12 12 -12l4 -4v-288l-4 -108l4 -4h4q8 0 24 48h188l8 -8v-120l-8 -8h-268l-12 8l-8 -8h-52zM944 590v8l4 4v4l28 -4h36l20 4v4h-48l-8 8l4 4v4 q0 12 -36 24v16l4 4l-4 4v124l4 16l-4 16l8 8h24v8h-24l-8 8l8 8h116l8 -8v-132l-8 -8h-48l-16 4l-24 -8v-4h88l8 -8v-64l-4 -48l4 -4l-4 -4l-20 4l-12 -4l-28 4h-60zM964 782l44 -12h12l12 12l-68 8v-8zM980 826l4 -12h4l4 28v16q-8 0 -12 -32zM1000 250l8 8v28h-8v-36z M1008 390l32 -12l4 4v12q-32 0 -32 24v16h-4v-44zM492 6v388l8 8h12v-8l-4 -4v-4h8l12 4l8 -16l40 20v20l8 8h8q28 0 28 -20l-4 -28l8 -8v-292l-60 -76h-64zM492 446v228h4l128 -128v-48h36q8 0 8 -12h4v8h4l16 -12l8 8l28 -28l-12 -4q12 -15 12 -28v-4q0 -8 -12 -8l-4 -4 v-12q0 -20 16 -20v-4l-12 -12h-64v4l4 4v4q-8 24 -16 24l-4 -4v8l16 8h12l36 -16v4l-36 32v4l8 12q-16 0 -16 8v4l4 4v4h-4l-16 -4l-8 16l-4 -4h-12l-4 4h-4l-12 -12h-4l-4 4h-4l-4 -28l4 -12l-4 -4h-4q-4 12 -24 12l-20 -8q-40 4 -40 12zM492 746v108l8 8h280v-12l20 4h28 v-8l-40 -40h-4v40h-4v-52l-60 -60l-16 -4h-60l-4 4l-16 -4v-108h-8zM500 254q12 -24 24 -24l-8 -12q12 -14 16 -76q27 -61 52 -76l20 16l-4 20v8l4 4l-4 4l8 96l-36 24l-4 -4h-8l-60 24v-4zM536 574l4 -4v-4l12 4v4h-16zM536 790l12 -16q16 4 16 24v4q0 9 -20 12v-4z M560 250l4 -4v-4q36 10 36 36q0 6 -16 12q-24 -8 -24 -32v-8zM576 322h20v4h-20v-4zM656 742h4l4 16l-4 4h-4v-20zM736 374v4l4 36l-4 12l4 4h4l56 -60l-4 -4h-52zM740 730v4l120 120h4v-116l-8 -8h-12l-8 8v48q0 8 24 8v4q-24 0 -24 16v4h-4q0 -20 -12 -20v-4q12 0 12 -8 v-48l-8 -8h-84zM752 482v8l8 8h8q7 0 16 -24l4 4h4l8 -8v-16l-8 -8zM40 6v388l8 8h12v-8l-4 -4v-4h8l12 4l8 -16l40 20v20l8 8h8q28 0 28 -20l-4 -28l8 -8v-292l-60 -76h-64zM40 446v228h4l128 -128v-48h36q8 0 8 -12h4v8h4l16 -12l8 8l28 -28l-12 -4q12 -15 12 -28v-4 q0 -8 -12 -8l-4 -4v-12q0 -20 16 -20v-4l-12 -12h-64v4l4 4v4q-8 24 -16 24l-4 -4v8l16 8h12l36 -16v4l-36 32v4l8 12q-16 0 -16 8v4l4 4v4h-4l-16 -4l-8 16l-4 -4h-12l-4 4h-4l-12 -12h-4l-4 4h-4l-4 -28l4 -12l-4 -4h-4q-4 12 -24 12l-20 -8q-40 4 -40 12zM40 746v108l8 8 h280v-12l20 4h28v-8l-40 -40h-4v40h-4v-52l-60 -60l-16 -4h-60l-4 4l-16 -4v-108h-8zM48 254q12 -24 24 -24l-8 -12q12 -14 16 -76q27 -61 52 -76l20 16l-4 20v8l4 4l-4 4l8 96l-36 24l-4 -4h-8l-60 24v-4zM84 574l4 -4v-4l12 4v4h-16zM84 790l12 -16q16 4 16 24v4 q0 9 -20 12v-4zM108 250l4 -4v-4q36 10 36 36q0 6 -16 12q-24 -8 -24 -32v-8zM124 322h20v4h-20v-4zM204 742h4l4 16l-4 4h-4v-20zM284 374v4l4 36l-4 12l4 4h4l56 -60l-4 -4h-52zM288 730v4l120 120h4v-116l-8 -8h-12l-8 8v48q0 8 24 8v4q-24 0 -24 16v4h-4q0 -20 -12 -20 v-4q12 0 12 -8v-48l-8 -8h-84zM300 482v8l8 8h8q7 0 16 -24l4 4h4l8 -8v-16l-8 -8z" />
</font>
</defs>
</svg>
